2020 TWICE - 我不能阻止我4k [2160P/MP4/427MB]

[复制链接]

2764

主题

3122

帖子

2万

积分

超级版主

Rank: 8Rank: 8

积分
26176
 楼主| 发表于 2020-10-31 11:30:00 | 显示全部楼层 |阅读模式
本帖最后由 叽里呱啦 于 2021-4-10 16:06 编辑

TWICE - 我不能阻止我4k.mp4_20201029_201641.114_副本.jpg TWICE - 我不能阻止我4k.mp4_20201029_201651.607_副本.jpg TWICE - 我不能阻止我4k.mp4_20201029_201659.001_副本.jpg TWICE - 我不能阻止我4k.mp4_20201029_201712.601_副本.jpg TWICE - 我不能阻止我4k.mp4_20201029_201735.633_副本.jpg TWICE - 我不能阻止我4k.mp4_20201029_201828.789_副本.jpg TWICE - 我不能阻止我4k.mp4_20201029_201842.791_副本.jpg

General
Complete name                  : 2020 TWICE - 我不能阻止我4k.mp4
Format                         : MPEG-4
Format profile                 : Base Media
Codec ID                       : isom (isom/iso2/avc1/mp41)
File size                      : 428 MiB
Duration                       : 3 min 40 s
Overall bit rate               : 16.2 Mb/s
Writing application            : Lavf58.12.100
exvr                           : EX1.8.2(C1.0.9)

Video
ID                             : 1
Format                         : AVC
Format/Info                    : Advanced Video Codec
Format profile                 : High@L5.1
Format settings                : CABAC / 4 Ref Frames
Format settings, CABAC         : Yes
Format settings, Reference fra : 4 frames
Codec ID                       : avc1
Codec ID/Info                  : Advanced Video Coding
Duration                       : 3 min 40 s
Bit rate                       : 16.1 Mb/s
Width                          : 3 840 pixels
Height                         : 2 160 pixels
Display aspect ratio           : 16:9
Frame rate mode                : Constant
Frame rate                     : 23.976 (23976/1000) FPS
Color space                    : YUV
Chroma subsampling             : 4:2:0
Bit depth                      : 8 bits
Scan type                      : Progressive
Bits/(Pixel*Frame)             : 0.081
Stream size                    : 423 MiB (99%)
Color range                    : Limited
Color primaries                : BT.709
Transfer characteristics       : BT.709
Matrix coefficients            : BT.709
Codec configuration box        : avcC

Audio
ID                             : 2
Format                         : AAC LC
Format/Info                    : Advanced Audio Codec Low Complexity
Codec ID                       : mp4a-40-2
Duration                       : 3 min 40 s
Bit rate mode                  : Constant
Bit rate                       : 192 kb/s
Channel(s)                     : 2 channels
Channel layout                 : L R
Sampling rate                  : 48.0 kHz
Frame rate                     : 46.875 FPS (1024 SPF)
Compression mode               : Lossy
Stream size                    : 5.06 MiB (1%)
Default                        : Yes
Alternate group                : 1

提供更多【4K、8K、16K(25-120fps)】高品质MV、演示片等珍藏版视频,需要的联系本楼主。
网盘下载失效不补:链接: https://pan.baidu.com/s/1Z11ugPb6fg2hzNIfZAC5pw 提取码:
****此区域为收费内容****    需支付 15 金币后可查看立即购买



.


上一篇:2020 CRAVITY -哦啊啊(表演视频)4k [2160P/MP4/413MB]
下一篇:2020 TXT - 蓝色小时4k4k [2160P/MP4/469MB]
回复

使用道具 举报

58

主题

1558

帖子

4484

积分

4K家园VIP

Rank: 9Rank: 9Rank: 9

积分
4484
发表于 2020-10-31 11:30:12 | 显示全部楼层
占坑编辑ing
回复 支持 反对

使用道具 举报

0

主题

1354

帖子

4076

积分

4K家园VIP

Rank: 9Rank: 9Rank: 9

积分
4076
发表于 2020-11-1 19:06:47 来自手机 | 显示全部楼层
没明白
回复 支持 反对

使用道具 举报

39

主题

1526

帖子

4372

积分

4K家园VIP

Rank: 9Rank: 9Rank: 9

积分
4372
发表于 2020-11-6 08:38:31 | 显示全部楼层
看帖要回,回帖才健康,在踩踩,楼主辛苦了!
回复 支持 反对

使用道具 举报

62

主题

1596

帖子

4624

积分

4K家园VIP

Rank: 9Rank: 9Rank: 9

积分
4624
发表于 2020-11-6 13:13:41 来自手机 | 显示全部楼层
打酱油的人拉,回复下赚取积分
回复 支持 反对

使用道具 举报

1

主题

1316

帖子

3968

积分

4K家园VIP

Rank: 9Rank: 9Rank: 9

积分
3968
发表于 2020-11-6 13:25:37 | 显示全部楼层
正需要
回复 支持 反对

使用道具 举报

0

主题

1

帖子

10

积分

新手上路

Rank: 1

积分
10
发表于 2021-4-23 20:11:09 | 显示全部楼层
怎么下
回复

使用道具 举报

0

主题

9

帖子

102

积分

4K家园VIP

Rank: 9Rank: 9Rank: 9

积分
102
发表于 2021-4-26 20:22:03 | 显示全部楼层
回复也不能下
回复 支持 反对

使用道具 举报

0

主题

27

帖子

122

积分

新手上路

Rank: 1

积分
122
发表于 2021-5-1 22:15:08 来自手机 | 显示全部楼层
支持
回复

使用道具 举报

0

主题

27

帖子

122

积分

新手上路

Rank: 1

积分
122
发表于 2021-5-3 23:11:58 | 显示全部楼层

谢谢分享,支持一下!
回复 支持 反对

使用道具 举报

您需要登录后才可以回帖 登录 | 立即注册

本版积分规则

精彩图文
Archiver|手机版|TAG|Sitemap|新帖|专题|联系我们:邮箱: 4kjia.com@gmail.com   

4k家园   ©2019