[高码收藏版] 2020 TWICE - 我不能阻止我[臭虫] [2160P/MP4/2.02GB]

[复制链接]

2067

主题

2329

帖子

1万

积分

超级版主

Rank: 8Rank: 8

积分
18940
 楼主| 发表于 4 天前 | 显示全部楼层 |阅读模式
本帖最后由 叽里呱啦 于 2020-11-23 10:35 编辑

TWICE - 我不能阻止我[臭虫!].mp4_20201120_181013.560_meitu_1.jpg TWICE - 我不能阻止我[臭虫!].mp4_20201120_181034.295_meitu_2.jpg TWICE - 我不能阻止我[臭虫!].mp4_20201120_181104.431_meitu_3.jpg TWICE - 我不能阻止我[臭虫!].mp4_20201120_181130.280_meitu_4.jpg TWICE - 我不能阻止我[臭虫!].mp4_20201120_181205.263_meitu_6.jpg TWICE - 我不能阻止我[臭虫!].mp4_20201120_181252.799_meitu_9.jpg TWICE - 我不能阻止我[臭虫!].mp4_20201120_181230.512_meitu_8.jpg TWICE - 我不能阻止我[臭虫!].mp4_20201120_181219.423_meitu_7.jpg

General
Complete name                  : 2020 TWICE - 我不能阻止我[臭虫!].mp4
Format                         : MPEG-4
Format profile                 : Base Media / Version 2
Codec ID                       : mp42 (mp42/mp41)
File size                      : 2.02 GiB
Duration                       : 3 min 40 s
Overall bit rate mode          : Variable
Overall bit rate               : 78.7 Mb/s
Encoded date                   : UTC 2020-10-25 06:18:58
Tagged date                    : UTC 2020-10-25 06:24:27
TIM                            : 00:00:07:02
TSC                            : 24000
TSZ                            : 1001

Video
ID                             : 1
Format                         : AVC
Format/Info                    : Advanced Video Codec
Format profile                 : High@L5.1
Format settings                : CABAC / 2 Ref Frames
Format settings, CABAC         : Yes
Format settings, Reference fra : 2 frames
Codec ID                       : avc1
Codec ID/Info                  : Advanced Video Coding
Duration                       : 3 min 40 s
Bit rate mode                  : Variable
Bit rate                       : 78.3 Mb/s
Maximum bit rate               : 768 kb/s
Width                          : 3 840 pixels
Height                         : 2 160 pixels
Display aspect ratio           : 16:9
Frame rate mode                : Constant
Frame rate                     : 23.976 (24000/1001) FPS
Color space                    : YUV
Chroma subsampling             : 4:2:0
Bit depth                      : 8 bits
Scan type                      : Progressive
Bits/(Pixel*Frame)             : 0.394
Stream size                    : 2.01 GiB (100%)
Language                       : English
Encoded date                   : UTC 2020-10-25 06:18:59
Tagged date                    : UTC 2020-10-25 06:18:59
Color range                    : Limited
Color primaries                : BT.709
Transfer characteristics       : BT.709
Matrix coefficients            : BT.709
Codec configuration box        : avcC

Audio
ID                             : 2
Format                         : AAC LC
Format/Info                    : Advanced Audio Codec Low Complexity
Codec ID                       : mp4a-40-2
Duration                       : 3 min 40 s
Source duration                : 3 min 40 s
Bit rate mode                  : Variable
Bit rate                       : 317 kb/s
Maximum bit rate               : 451 kb/s
Channel(s)                     : 2 channels
Channel layout                 : L R
Sampling rate                  : 48.0 kHz
Frame rate                     : 46.875 FPS (1024 SPF)
Compression mode               : Lossy
Stream size                    : 8.35 MiB (0%)
Source stream size             : 8.36 MiB (0%)
Language                       : English
Encoded date                   : UTC 2020-10-25 06:19:00
Tagged date                    : UTC 2020-10-25 06:19:00


网盘下载失效不补:链接: https://pan.baidu.com/s/1aah3WsMfiWhaa5EVh6a4Ew 提取码:
****此区域为收费内容****    需支付 30 金币后可查看立即购买




.

上一篇:2020 aespa -黑曼巴4k [2160P/MP4/451MB]
下一篇:[高码收藏版] [UHD] GFRIEND - 苹果 [2160P/MP4/1.23GB]
回复

使用道具 举报

1

主题

1188

帖子

3406

积分

4K家园VIP

Rank: 9Rank: 9Rank: 9

积分
3406
发表于 4 天前 来自手机 | 显示全部楼层
感谢推荐,确实不错
回复 支持 反对

使用道具 举报

0

主题

2

帖子

59

积分

4K家园VIP

Rank: 9Rank: 9Rank: 9

积分
59
发表于 4 天前 | 显示全部楼层
3q very much
回复 支持 反对

使用道具 举报

58

主题

1346

帖子

3848

积分

4K家园VIP

Rank: 9Rank: 9Rank: 9

积分
3848
发表于 3 天前 | 显示全部楼层
啊啊啊啊啊啊啊啊啊啊啊
回复 支持 反对

使用道具 举报

0

主题

11

帖子

181

积分

新手上路

Rank: 1

积分
181
发表于 3 天前 | 显示全部楼层
发出来的啊,我要的,谢谢。
回复 支持 反对

使用道具 举报

2

主题

1139

帖子

3271

积分

4K家园VIP

Rank: 9Rank: 9Rank: 9

积分
3271
发表于 3 天前 | 显示全部楼层
占坑编辑ing
回复 支持 反对

使用道具 举报

0

主题

5

帖子

25

积分

新手上路

Rank: 1

积分
25
发表于 3 天前 | 显示全部楼层

感谢推荐,确实不错
回复 支持 反对

使用道具 举报

0

主题

5

帖子

25

积分

新手上路

Rank: 1

积分
25
发表于 3 天前 | 显示全部楼层

感谢推荐,确实不错
回复 支持 反对

使用道具 举报

1

主题

949

帖子

2867

积分

4K家园VIP

Rank: 9Rank: 9Rank: 9

积分
2867
发表于 3 天前 | 显示全部楼层
楼猪V5啊
回复 支持 反对

使用道具 举报

1

主题

14

帖子

72

积分

4K家园VIP

Rank: 9Rank: 9Rank: 9

积分
72
发表于 3 天前 | 显示全部楼层
期待这样高质量的MV
回复 支持 反对

使用道具 举报

您需要登录后才可以回帖 登录 | 立即注册

本版积分规则

精彩图文
Archiver|手机版|TAG|Sitemap|新帖|专题|联系我们:邮箱: 4kjia.com@gmail.com   

4k家园   ©2019