2020 IZ_ONE - 全景 4k [2160P/MP4/463MB]

[复制链接]

2142

主题

2417

帖子

1万

积分

超级版主

Rank: 8Rank: 8

积分
19809
 楼主| 发表于 2020-12-15 11:00:00 | 显示全部楼层 |阅读模式

2020 LOONA -晚点接吻 [2160PMP4601MB].mp4_20201213_213609.792.jpg 2020 LOONA -晚点接吻 [2160PMP4601MB].mp4_20201213_213614.959.jpg 2020 LOONA -晚点接吻 [2160PMP4601MB].mp4_20201213_213650.199.jpg 2020 LOONA -晚点接吻 [2160PMP4601MB].mp4_20201213_213700.296.jpg 2020 LOONA -晚点接吻 [2160PMP4601MB].mp4_20201213_213707.383.jpg 2020 LOONA -晚点接吻 [2160PMP4601MB].mp4_20201213_213718.440.jpg 2020 LOONA -晚点接吻 [2160PMP4601MB].mp4_20201213_213727.655.jpg 2020 LOONA -晚点接吻 [2160PMP4601MB].mp4_20201213_213732.095.jpg

General
Complete name                  : 2020 IZ_ONE - 全景 4k [2160PMP4601MB].mp4
Format                         : MPEG-4
Format profile                 : Base Media
Codec ID                       : isom (isom/iso2/avc1/mp41)
File size                      : 464 MiB
Duration                       : 3 min 51 s
Overall bit rate               : 16.8 Mb/s
Writing application            : Lavf58.12.100
exvr                           : EX1.8.2(C1.0.9)

Video
ID                             : 1
Format                         : AVC
Format/Info                    : Advanced Video Codec
Format profile                 : High@L5.1
Format settings                : CABAC / 4 Ref Frames
Format settings, CABAC         : Yes
Format settings, Reference fra : 4 frames
Codec ID                       : avc1
Codec ID/Info                  : Advanced Video Coding
Duration                       : 3 min 51 s
Bit rate                       : 16.6 Mb/s
Width                          : 3 840 pixels
Height                         : 2 160 pixels
Display aspect ratio           : 16:9
Frame rate mode                : Constant
Frame rate                     : 23.976 (23976/1000) FPS
Color space                    : YUV
Chroma subsampling             : 4:2:0
Bit depth                      : 8 bits
Scan type                      : Progressive
Bits/(Pixel*Frame)             : 0.084
Stream size                    : 458 MiB (99%)
Color range                    : Limited
Color primaries                : BT.709
Transfer characteristics       : BT.709
Matrix coefficients            : BT.709
Codec configuration box        : avcC

Audio
ID                             : 2
Format                         : AAC LC
Format/Info                    : Advanced Audio Codec Low Complexity
Codec ID                       : mp4a-40-2
Duration                       : 3 min 51 s
Bit rate mode                  : Constant
Bit rate                       : 192 kb/s
Channel(s)                     : 2 channels
Channel layout                 : L R
Sampling rate                  : 48.0 kHz
Frame rate                     : 46.875 FPS (1024 SPF)
Compression mode               : Lossy
Stream size                    : 5.29 MiB (1%)
Default                        : Yes
Alternate group                : 1




网盘下载失效不补:链接: https://pan.baidu.com/s/1AlyLzb1UhDai5G5tDZ-XUg 提取码:
****此区域为收费内容****    需支付 15 金币后可查看立即购买



.
回复

使用道具 举报

1

主题

1141

帖子

3437

积分

4K家园VIP

Rank: 9Rank: 9Rank: 9

积分
3437
发表于 2020-12-15 11:00:11 | 显示全部楼层
沙发???
回复 支持 反对

使用道具 举报

0

主题

2029

帖子

7329

积分

4K家园VIP

Rank: 9Rank: 9Rank: 9

积分
7329
发表于 2020-12-15 12:00:19 | 显示全部楼层
太好啦&萬分感謝版主的無私發佈分享%
回复 支持 反对

使用道具 举报

2

主题

1198

帖子

3460

积分

4K家园VIP

Rank: 9Rank: 9Rank: 9

积分
3460
发表于 2020-12-17 21:59:11 | 显示全部楼层
呵呵。。。
回复 支持 反对

使用道具 举报

0

主题

13

帖子

84

积分

新手上路

Rank: 1

积分
84
发表于 2020-12-20 19:18:14 | 显示全部楼层
感谢楼主分享
回复 支持 反对

使用道具 举报

2

主题

1174

帖子

3372

积分

中级会员

Rank: 4

积分
3372
发表于 2021-1-4 09:07:45 | 显示全部楼层
出4K版啦,下个看看
回复 支持 反对

使用道具 举报

2

主题

1555

帖子

4295

积分

4K家园VIP

Rank: 9Rank: 9Rank: 9

积分
4295
发表于 6 天前 | 显示全部楼层
LZ帖子不给力,勉强给回复下吧
回复 支持 反对

使用道具 举报

0

主题

10

帖子

47

积分

4K家园VIP

Rank: 9Rank: 9Rank: 9

积分
47
发表于 5 天前 | 显示全部楼层
支持楼主,韩国美女就是漂亮
回复 支持 反对

使用道具 举报

0

主题

19

帖子

110

积分

新手上路

Rank: 1

积分
110
发表于 5 天前 | 显示全部楼层
顶顶顶
回复

使用道具 举报

0

主题

1238

帖子

3546

积分

中级会员

Rank: 4

积分
3546
发表于 4 天前 | 显示全部楼层
额.....这个可以有
回复 支持 反对

使用道具 举报

您需要登录后才可以回帖 登录 | 立即注册

本版积分规则

精彩图文
Archiver|手机版|TAG|Sitemap|新帖|专题|联系我们:邮箱: 4kjia.com@gmail.com   

4k家园   ©2019