2020 NCT-共振 4k [2160P/MP4/627MB]

[复制链接]

2142

主题

2417

帖子

1万

积分

超级版主

Rank: 8Rank: 8

积分
19812
 楼主| 发表于 2020-12-16 10:30:00 | 显示全部楼层 |阅读模式
2020 NCT-共振 4k.mp4_20201213_214939.008.jpg 2020 NCT-共振 4k.mp4_20201213_214957.888.jpg 2020 NCT-共振 4k.mp4_20201213_215002.392.jpg 2020 NCT-共振 4k.mp4_20201213_215012.671.jpg


General
Complete name                  : 2020 NCT-共振 4k.mp4
Format                         : MPEG-4
Format profile                 : Base Media
Codec ID                       : isom (isom/iso2/avc1/mp41)
File size                      : 627 MiB
Duration                       : 5 min 35 s
Overall bit rate               : 15.7 Mb/s
Writing application            : Lavf58.12.100
exvr                           : EX1.8.2(C1.0.9)

Video
ID                             : 1
Format                         : AVC
Format/Info                    : Advanced Video Codec
Format profile                 : High@L5.1
Format settings                : CABAC / 4 Ref Frames
Format settings, CABAC         : Yes
Format settings, Reference fra : 4 frames
Codec ID                       : avc1
Codec ID/Info                  : Advanced Video Coding
Duration                       : 5 min 35 s
Bit rate                       : 15.5 Mb/s
Width                          : 3 840 pixels
Height                         : 2 160 pixels
Display aspect ratio           : 16:9
Frame rate mode                : Constant
Frame rate                     : 23.976 (23976/1000) FPS
Color space                    : YUV
Chroma subsampling             : 4:2:0
Bit depth                      : 8 bits
Scan type                      : Progressive
Bits/(Pixel*Frame)             : 0.078
Stream size                    : 619 MiB (99%)
Color range                    : Limited
Color primaries                : BT.709
Transfer characteristics       : BT.709
Matrix coefficients            : BT.709
Codec configuration box        : avcC

Audio
ID                             : 2
Format                         : AAC LC
Format/Info                    : Advanced Audio Codec Low Complexity
Codec ID                       : mp4a-40-2
Duration                       : 5 min 35 s
Bit rate mode                  : Constant
Bit rate                       : 192 kb/s
Channel(s)                     : 2 channels
Channel layout                 : L R
Sampling rate                  : 48.0 kHz
Frame rate                     : 46.875 FPS (1024 SPF)
Compression mode               : Lossy
Stream size                    : 7.69 MiB (1%)
Default                        : Yes
Alternate group                : 1


网盘下载失效不补:链接: https://pan.baidu.com/s/1i-WrdHWiNPavG53g_DNA6Q 提取码:
****此区域为收费内容****    需支付 15 金币后可查看立即购买




.
回复

使用道具 举报

47

主题

1302

帖子

3722

积分

4K家园VIP

Rank: 9Rank: 9Rank: 9

积分
3722
发表于 2020-12-16 10:30:06 | 显示全部楼层
我也来顶一下..
回复 支持 反对

使用道具 举报

2

主题

1195

帖子

3429

积分

4K家园VIP

Rank: 9Rank: 9Rank: 9

积分
3429
发表于 2020-12-18 23:19:34 | 显示全部楼层
支持你哈...................................
回复 支持 反对

使用道具 举报

47

主题

1336

帖子

3850

积分

4K家园VIP

Rank: 9Rank: 9Rank: 9

积分
3850
发表于 2020-12-25 18:35:11 | 显示全部楼层
我只是看看啊,不说话
回复 支持 反对

使用道具 举报

1

主题

1126

帖子

3394

积分

4K家园VIP

Rank: 9Rank: 9Rank: 9

积分
3394
发表于 2020-12-28 08:10:51 | 显示全部楼层
你们要是有4K资源记得分享,别小气
回复 支持 反对

使用道具 举报

0

主题

1184

帖子

3386

积分

4K家园VIP

Rank: 9Rank: 9Rank: 9

积分
3386
发表于 7 天前 | 显示全部楼层
都不知道说的啥
回复 支持 反对

使用道具 举报

您需要登录后才可以回帖 登录 | 立即注册

本版积分规则

精彩图文
Archiver|手机版|TAG|Sitemap|新帖|专题|联系我们:邮箱: 4kjia.com@gmail.com   

4k家园   ©2019