2020 ONEUS - BBUSYEO 4k [2160P/MP4/411MB]

[复制链接]

2142

主题

2417

帖子

1万

积分

超级版主

Rank: 8Rank: 8

积分
19809
 楼主| 发表于 2020-12-17 11:00:00 | 显示全部楼层 |阅读模式
2020 ONEUS - BBUSYEO 4k.mp4_20201213_215229.256.jpg 2020 ONEUS - BBUSYEO 4k.mp4_20201213_215234.944.jpg 2020 ONEUS - BBUSYEO 4k.mp4_20201213_215243.648.jpg 2020 ONEUS - BBUSYEO 4k.mp4_20201213_215252.776.jpg


General
Complete name                  : 2020 ONEUS - BBUSYEO 4k.mp4
Format                         : MPEG-4
Format profile                 : Base Media
Codec ID                       : isom (isom/iso2/avc1/mp41)
File size                      : 411 MiB
Duration                       : 3 min 20 s
Overall bit rate               : 17.2 Mb/s
Writing application            : Lavf58.12.100
exvr                           : EX1.8.2(C1.0.9)

Video
ID                             : 1
Format                         : AVC
Format/Info                    : Advanced Video Codec
Format profile                 : High@L5.1
Format settings                : CABAC / 4 Ref Frames
Format settings, CABAC         : Yes
Format settings, Reference fra : 4 frames
Codec ID                       : avc1
Codec ID/Info                  : Advanced Video Coding
Duration                       : 3 min 20 s
Bit rate                       : 17.0 Mb/s
Width                          : 3 840 pixels
Height                         : 2 160 pixels
Display aspect ratio           : 16:9
Frame rate mode                : Constant
Frame rate                     : 23.976 (23976/1000) FPS
Color space                    : YUV
Chroma subsampling             : 4:2:0
Bit depth                      : 8 bits
Scan type                      : Progressive
Bits/(Pixel*Frame)             : 0.086
Stream size                    : 407 MiB (99%)
Color range                    : Limited
Color primaries                : BT.709
Transfer characteristics       : BT.709
Matrix coefficients            : BT.709
Codec configuration box        : avcC

Audio
ID                             : 2
Format                         : AAC LC
Format/Info                    : Advanced Audio Codec Low Complexity
Codec ID                       : mp4a-40-2
Duration                       : 3 min 20 s
Bit rate mode                  : Constant
Bit rate                       : 192 kb/s
Channel(s)                     : 2 channels
Channel layout                 : L R
Sampling rate                  : 48.0 kHz
Frame rate                     : 46.875 FPS (1024 SPF)
Compression mode               : Lossy
Stream size                    : 4.58 MiB (1%)
Default                        : Yes
Alternate group                : 1


网盘下载失效不补:链接: https://pan.baidu.com/s/1fW7hdR6zngbuaZa-4U6OrA 提取码:
****此区域为收费内容****    需支付 15 金币后可查看立即购买




.
回复

使用道具 举报

45

主题

1328

帖子

3826

积分

4K家园VIP

Rank: 9Rank: 9Rank: 9

积分
3826
发表于 2020-12-17 11:00:04 来自手机 | 显示全部楼层
试试看吧
回复 支持 反对

使用道具 举报

62

主题

1369

帖子

3921

积分

4K家园VIP

Rank: 9Rank: 9Rank: 9

积分
3921
发表于 2020-12-20 09:27:54 来自手机 | 显示全部楼层
4K应该不错,我也下个看看
回复 支持 反对

使用道具 举报

40

主题

1371

帖子

3903

积分

4K家园VIP

Rank: 9Rank: 9Rank: 9

积分
3903
发表于 2020-12-27 18:22:35 | 显示全部楼层
多谢楼主分享
回复 支持 反对

使用道具 举报

37

主题

1299

帖子

3717

积分

4K家园VIP

Rank: 9Rank: 9Rank: 9

积分
3717
发表于 2021-1-2 12:22:19 | 显示全部楼层
感谢分享
回复 支持 反对

使用道具 举报

53

主题

1054

帖子

3228

积分

4K家园VIP

Rank: 9Rank: 9Rank: 9

积分
3228
发表于 2021-1-7 12:55:27 | 显示全部楼层
回个帖子,下班咯~
回复 支持 反对

使用道具 举报

您需要登录后才可以回帖 登录 | 立即注册

本版积分规则

精彩图文
Archiver|手机版|TAG|Sitemap|新帖|专题|联系我们:邮箱: 4kjia.com@gmail.com   

4k家园   ©2019