2020 TWICE - 我阻止不了我(科尔伯特后期表演) [2160P/MP4/466MB]

[复制链接]

2174

主题

2452

帖子

2万

积分

超级版主

Rank: 8Rank: 8

积分
20089
 楼主| 发表于 2020-12-18 12:00:00 | 显示全部楼层 |阅读模式
2020 TWICE - 我阻止不了我(科尔伯特后期表演).mp4_20201213_215545.288.jpg 2020 TWICE - 我阻止不了我(科尔伯特后期表演).mp4_20201213_215551.272.jpg 2020 TWICE - 我阻止不了我(科尔伯特后期表演).mp4_20201213_215557.185.jpg 2020 TWICE - 我阻止不了我(科尔伯特后期表演).mp4_20201213_215604.656.jpg 2020 TWICE - 我阻止不了我(科尔伯特后期表演).mp4_20201213_215624.303.jpg

General
Complete name                  : 2020 TWICE - 我阻止不了我(科尔伯特后期表演).mp4
Format                         : MPEG-4
Format profile                 : Base Media
Codec ID                       : isom (isom/iso2/avc1/mp41)
File size                      : 467 MiB
Duration                       : 3 min 30 s
Overall bit rate               : 18.6 Mb/s
Writing application            : Lavf58.12.100
exvr                           : EX1.8.2(C1.0.9)

Video
ID                             : 1
Format                         : AVC
Format/Info                    : Advanced Video Codec
Format profile                 : High@L5.1
Format settings                : CABAC / 4 Ref Frames
Format settings, CABAC         : Yes
Format settings, Reference fra : 4 frames
Codec ID                       : avc1
Codec ID/Info                  : Advanced Video Coding
Duration                       : 3 min 30 s
Bit rate                       : 18.4 Mb/s
Width                          : 3 840 pixels
Height                         : 2 160 pixels
Display aspect ratio           : 16:9
Frame rate mode                : Constant
Frame rate                     : 29.970 (29970/1000) FPS
Color space                    : YUV
Chroma subsampling             : 4:2:0
Bit depth                      : 8 bits
Scan type                      : Progressive
Bits/(Pixel*Frame)             : 0.074
Stream size                    : 462 MiB (99%)
Color range                    : Limited
Color primaries                : BT.709
Transfer characteristics       : BT.709
Matrix coefficients            : BT.709
Codec configuration box        : avcC

Audio
ID                             : 2
Format                         : AAC LC
Format/Info                    : Advanced Audio Codec Low Complexity
Codec ID                       : mp4a-40-2
Duration                       : 3 min 30 s
Bit rate mode                  : Constant
Bit rate                       : 192 kb/s
Channel(s)                     : 2 channels
Channel layout                 : L R
Sampling rate                  : 48.0 kHz
Frame rate                     : 46.875 FPS (1024 SPF)
Compression mode               : Lossy
Stream size                    : 4.81 MiB (1%)
Default                        : Yes
Alternate group                : 1


网盘下载失效不补:链接: https://pan.baidu.com/s/1bPepyhL3-doml_spnxlh7A 提取码:
****此区域为收费内容****    需支付 15 金币后可查看立即购买


.
回复

使用道具 举报

0

主题

1388

帖子

4004

积分

4K家园VIP

Rank: 9Rank: 9Rank: 9

积分
4004
发表于 2020-12-18 12:00:05 来自手机 | 显示全部楼层
围观 围观 沙发在哪里!!!
回复 支持 反对

使用道具 举报

40

主题

1322

帖子

3770

积分

4K家园VIP

Rank: 9Rank: 9Rank: 9

积分
3770
发表于 2020-12-21 16:28:34 来自手机 | 显示全部楼层
没人回帖。。。我来个吧
回复 支持 反对

使用道具 举报

2

主题

1224

帖子

3522

积分

中级会员

Rank: 4

积分
3522
发表于 2021-1-3 08:25:28 | 显示全部楼层
发发呆,回回帖,工作结束~
回复 支持 反对

使用道具 举报

40

主题

1363

帖子

3885

积分

4K家园VIP

Rank: 9Rank: 9Rank: 9

积分
3885
发表于 2021-1-9 17:02:23 | 显示全部楼层
边撸边过
回复 支持 反对

使用道具 举报

1

主题

1026

帖子

3100

积分

4K家园VIP

Rank: 9Rank: 9Rank: 9

积分
3100
发表于 2021-1-10 15:08:14 来自手机 | 显示全部楼层
沙发???
回复 支持 反对

使用道具 举报

您需要登录后才可以回帖 登录 | 立即注册

本版积分规则

精彩图文
Archiver|手机版|TAG|Sitemap|新帖|专题|联系我们:邮箱: 4kjia.com@gmail.com   

4k家园   ©2019