2020 BoA - 更好的 4k [2160P/MP4/362MB]

[复制链接]

2145

主题

2420

帖子

1万

积分

超级版主

Rank: 8Rank: 8

积分
19845
 楼主| 发表于 2020-12-19 10:30:00 | 显示全部楼层 |阅读模式

2020 BoA - 更好的 4k.mp4_20201218_194941.999.jpg 2020 BoA - 更好的 4k.mp4_20201218_194951.146.jpg 2020 BoA - 更好的 4k.mp4_20201218_195001.500.jpg 2020 BoA - 更好的 4k.mp4_20201218_195013.764.jpg 2020 BoA - 更好的 4k.mp4_20201218_195036.571.jpg 2020 BoA - 更好的 4k.mp4_20201218_195050.787.jpg

General
Complete name                  : 2020 BoA - 更好的 4k.mp4
Format                         : MPEG-4
Format profile                 : Base Media
Codec ID                       : isom (isom/iso2/avc1/mp41)
File size                      : 362 MiB
Duration                       : 3 min 33 s
Overall bit rate               : 14.2 Mb/s
Writing application            : Lavf58.12.100
exvr                           : EX1.8.2(C1.0.9)

Video
ID                             : 1
Format                         : AVC
Format/Info                    : Advanced Video Codec
Format profile                 : High@L5.1
Format settings                : CABAC / 4 Ref Frames
Format settings, CABAC         : Yes
Format settings, Reference fra : 4 frames
Codec ID                       : avc1
Codec ID/Info                  : Advanced Video Coding
Duration                       : 3 min 33 s
Bit rate                       : 14.0 Mb/s
Width                          : 3 840 pixels
Height                         : 2 160 pixels
Display aspect ratio           : 16:9
Frame rate mode                : Constant
Frame rate                     : 23.976 (23976/1000) FPS
Color space                    : YUV
Chroma subsampling             : 4:2:0
Bit depth                      : 8 bits
Scan type                      : Progressive
Bits/(Pixel*Frame)             : 0.071
Stream size                    : 357 MiB (99%)
Color range                    : Limited
Color primaries                : BT.709
Transfer characteristics       : BT.709
Matrix coefficients            : BT.709
Codec configuration box        : avcC

Audio
ID                             : 2
Format                         : AAC LC
Format/Info                    : Advanced Audio Codec Low Complexity
Codec ID                       : mp4a-40-2
Duration                       : 3 min 33 s
Bit rate mode                  : Constant
Bit rate                       : 192 kb/s
Channel(s)                     : 2 channels
Channel layout                 : L R
Sampling rate                  : 48.0 kHz
Frame rate                     : 46.875 FPS (1024 SPF)
Compression mode               : Lossy
Stream size                    : 4.88 MiB (1%)
Default                        : Yes
Alternate group                : 1




网盘下载失效不补:链接: https://pan.baidu.com/s/19lmlh-MCstoPMFWXf5ANaA 提取码:
****此区域为收费内容****    需支付 15 金币后可查看立即购买


.
回复

使用道具 举报

2

主题

1519

帖子

4149

积分

4K家园VIP

Rank: 9Rank: 9Rank: 9

积分
4149
发表于 2020-12-19 10:30:04 来自手机 | 显示全部楼层
1v1飘过
回复 支持 反对

使用道具 举报

0

主题

1480

帖子

4076

积分

4K家园VIP

Rank: 9Rank: 9Rank: 9

积分
4076
发表于 2020-12-20 13:29:50 | 显示全部楼层
呵呵。。。
回复 支持 反对

使用道具 举报

0

主题

1217

帖子

3503

积分

4K家园VIP

Rank: 9Rank: 9Rank: 9

积分
3503
发表于 2020-12-20 23:54:34 | 显示全部楼层
差评
回复 支持 反对

使用道具 举报

0

主题

1183

帖子

3399

积分

4K家园VIP

Rank: 9Rank: 9Rank: 9

积分
3399
发表于 2020-12-22 14:00:27 | 显示全部楼层
纯粹路过,没任何兴趣,仅仅是看在老用户份上回复一下
回复 支持 反对

使用道具 举报

1

主题

1150

帖子

3466

积分

4K家园VIP

Rank: 9Rank: 9Rank: 9

积分
3466
发表于 2020-12-26 14:04:50 | 显示全部楼层
边撸边过
回复 支持 反对

使用道具 举报

您需要登录后才可以回帖 登录 | 立即注册

本版积分规则

精彩图文
Archiver|手机版|TAG|Sitemap|新帖|专题|联系我们:邮箱: 4kjia.com@gmail.com   

4k家园   ©2019