2020 CHUNG HA-梦想你(与R3HAB)(表演视频) [2160P/MP4/288MB]

[复制链接]

2155

主题

2432

帖子

1万

积分

超级版主

Rank: 8Rank: 8

积分
19937
 楼主| 发表于 2020-12-20 11:30:00 | 显示全部楼层 |阅读模式
2020 CHUNG HA-梦想你(与R3HAB)(表演视频).mp4_20201218_195650.666.jpg 2020 CHUNG HA-梦想你(与R3HAB)(表演视频).mp4_20201218_195728.251.jpg 2020 CHUNG HA-梦想你(与R3HAB)(表演视频).mp4_20201218_195736.466.jpg 2020 CHUNG HA-梦想你(与R3HAB)(表演视频).mp4_20201218_195745.923.jpg

General
Complete name                  : 2020 CHUNG HA-梦想你(与R3HAB)(表演视频).mp4
Format                         : MPEG-4
Format profile                 : Base Media
Codec ID                       : isom (isom/iso2/avc1/mp41)
File size                      : 288 MiB
Duration                       : 3 min 26 s
Overall bit rate               : 11.7 Mb/s
Writing application            : Lavf58.12.100
exvr                           : EX1.8.2(C1.0.9)

Video
ID                             : 1
Format                         : AVC
Format/Info                    : Advanced Video Codec
Format profile                 : High@L5.1
Format settings                : CABAC / 4 Ref Frames
Format settings, CABAC         : Yes
Format settings, Reference fra : 4 frames
Format settings, GOP           : M=4, N=48
Codec ID                       : avc1
Codec ID/Info                  : Advanced Video Coding
Duration                       : 3 min 26 s
Bit rate                       : 11.5 Mb/s
Width                          : 3 840 pixels
Height                         : 2 160 pixels
Display aspect ratio           : 16:9
Frame rate mode                : Constant
Frame rate                     : 23.976 (23976/1000) FPS
Color space                    : YUV
Chroma subsampling             : 4:2:0
Bit depth                      : 8 bits
Scan type                      : Progressive
Bits/(Pixel*Frame)             : 0.058
Stream size                    : 283 MiB (98%)
Color range                    : Limited
Color primaries                : BT.709
Transfer characteristics       : BT.709
Matrix coefficients            : BT.709
Codec configuration box        : avcC

Audio
ID                             : 2
Format                         : AAC LC
Format/Info                    : Advanced Audio Codec Low Complexity
Codec ID                       : mp4a-40-2
Duration                       : 3 min 26 s
Bit rate mode                  : Constant
Bit rate                       : 192 kb/s
Channel(s)                     : 2 channels
Channel layout                 : L R
Sampling rate                  : 48.0 kHz
Frame rate                     : 46.875 FPS (1024 SPF)
Compression mode               : Lossy
Stream size                    : 4.72 MiB (2%)
Default                        : Yes
Alternate group                : 1



网盘下载失效不补:链接: https://pan.baidu.com/s/1mFaI-RxwdLnHw6-CELCiIg 提取码:
****此区域为收费内容****    需支付 15 金币后可查看立即购买



.
回复

使用道具 举报

1

主题

1126

帖子

3396

积分

4K家园VIP

Rank: 9Rank: 9Rank: 9

积分
3396
发表于 2020-12-20 11:30:05 | 显示全部楼层
支持你哈...................................
回复 支持 反对

使用道具 举报

31

主题

1371

帖子

3837

积分

4K家园VIP

Rank: 9Rank: 9Rank: 9

积分
3837
发表于 2020-12-20 22:50:25 | 显示全部楼层
我是个凑数的。。。
回复 支持 反对

使用道具 举报

39

主题

1317

帖子

3745

积分

4K家园VIP

Rank: 9Rank: 9Rank: 9

积分
3745
发表于 2020-12-22 09:28:58 | 显示全部楼层
楼下的接上
回复 支持 反对

使用道具 举报

47

主题

1312

帖子

3762

积分

4K家园VIP

Rank: 9Rank: 9Rank: 9

积分
3762
发表于 2020-12-23 02:12:25 | 显示全部楼层
4K版的应该更清晰吧
回复 支持 反对

使用道具 举报

1

主题

1331

帖子

3843

积分

4K家园VIP

Rank: 9Rank: 9Rank: 9

积分
3843
发表于 2020-12-27 09:57:03 | 显示全部楼层
锄禾日当午,发帖真辛苦。谁知坛中餐,帖帖皆辛苦!
回复 支持 反对

使用道具 举报

您需要登录后才可以回帖 登录 | 立即注册

本版积分规则

精彩图文
Archiver|手机版|TAG|Sitemap|新帖|专题|联系我们:邮箱: 4kjia.com@gmail.com   

4k家园   ©2019