2020 ITZY-表演实践(亚洲艺术家奖版本)[2160P/MP4/325MB]

[复制链接]

2160

主题

2438

帖子

1万

积分

超级版主

Rank: 8Rank: 8

积分
19974
 楼主| 发表于 2020-12-21 13:30:00 | 显示全部楼层 |阅读模式
2020 ITZY-表演实践(亚洲艺术家奖版本).mp4_20201218_200056.731.jpg 2020 ITZY-表演实践(亚洲艺术家奖版本).mp4_20201218_200121.371.jpg 2020 ITZY-表演实践(亚洲艺术家奖版本).mp4_20201218_200129.554.jpg 2020 ITZY-表演实践(亚洲艺术家奖版本).mp4_20201218_200138.442.jpg

General
Complete name                  : 2020 ITZY-表演实践(亚洲艺术家奖版本).mp4
Format                         : MPEG-4
Format profile                 : Base Media
Codec ID                       : isom (isom/iso2/avc1/mp41)
File size                      : 326 MiB
Duration                       : 3 min 31 s
Overall bit rate               : 12.9 Mb/s
Writing application            : Lavf58.12.100
exvr                           : EX1.8.2(C1.0.9)

Video
ID                             : 1
Format                         : AVC
Format/Info                    : Advanced Video Codec
Format profile                 : High@L5.1
Format settings                : CABAC / 4 Ref Frames
Format settings, CABAC         : Yes
Format settings, Reference fra : 4 frames
Codec ID                       : avc1
Codec ID/Info                  : Advanced Video Coding
Duration                       : 3 min 31 s
Bit rate                       : 12.7 Mb/s
Width                          : 3 840 pixels
Height                         : 2 160 pixels
Display aspect ratio           : 16:9
Frame rate mode                : Constant
Frame rate                     : 23.976 (23976/1000) FPS
Color space                    : YUV
Chroma subsampling             : 4:2:0
Bit depth                      : 8 bits
Scan type                      : Progressive
Bits/(Pixel*Frame)             : 0.064
Stream size                    : 321 MiB (98%)
Color range                    : Limited
Color primaries                : BT.709
Transfer characteristics       : BT.709
Matrix coefficients            : BT.709
Codec configuration box        : avcC

Audio
ID                             : 2
Format                         : AAC LC
Format/Info                    : Advanced Audio Codec Low Complexity
Codec ID                       : mp4a-40-2
Duration                       : 3 min 31 s
Bit rate mode                  : Constant
Bit rate                       : 192 kb/s
Channel(s)                     : 2 channels
Channel layout                 : L R
Sampling rate                  : 48.0 kHz
Frame rate                     : 46.875 FPS (1024 SPF)
Compression mode               : Lossy
Stream size                    : 4.84 MiB (1%)
Default                        : Yes
Alternate group                : 1



网盘下载失效不补:链接: https://pan.baidu.com/s/1fe7mrR3_mB65-qbcYY7JIg 提取码:
****此区域为收费内容****    需支付 15 金币后可查看立即购买



.
回复

使用道具 举报

0

主题

1401

帖子

3803

积分

4K家园VIP

Rank: 9Rank: 9Rank: 9

积分
3803
发表于 2020-12-21 13:30:07 | 显示全部楼层
一直在看
回复 支持 反对

使用道具 举报

0

主题

2093

帖子

7469

积分

4K家园VIP

Rank: 9Rank: 9Rank: 9

积分
7469
发表于 2020-12-21 15:11:12 | 显示全部楼层
太好啦&萬分感謝版主的無私發佈分享%
回复 支持 反对

使用道具 举报

0

主题

4

帖子

15

积分

新手上路

Rank: 1

积分
15
发表于 2020-12-24 06:56:45 | 显示全部楼层
谢谢楼主分享
回复 支持 反对

使用道具 举报

2

主题

1224

帖子

3522

积分

中级会员

Rank: 4

积分
3522
发表于 2020-12-24 23:30:13 | 显示全部楼层
无论是不是沙发都得回复下
回复 支持 反对

使用道具 举报

0

主题

1584

帖子

4298

积分

中级会员

Rank: 4

积分
4298
发表于 2020-12-27 10:33:45 | 显示全部楼层
4K家园资源不错,前排支持
回复 支持 反对

使用道具 举报

45

主题

1330

帖子

3832

积分

4K家园VIP

Rank: 9Rank: 9Rank: 9

积分
3832
发表于 2020-12-28 17:06:48 来自手机 | 显示全部楼层
广告位,,坐下看看
回复 支持 反对

使用道具 举报

49

主题

1325

帖子

3835

积分

4K家园VIP

Rank: 9Rank: 9Rank: 9

积分
3835
发表于 2021-1-2 08:55:05 | 显示全部楼层
元芳你怎么看?
回复 支持 反对

使用道具 举报

您需要登录后才可以回帖 登录 | 立即注册

本版积分规则

精彩图文
Archiver|手机版|TAG|Sitemap|新帖|专题|联系我们:邮箱: 4kjia.com@gmail.com   

4k家园   ©2019