2020 LOONA - 新的 [2160P/MP4/451MB]

[复制链接]

2156

主题

2433

帖子

1万

积分

超级版主

Rank: 8Rank: 8

积分
19942
 楼主| 发表于 2020-12-25 11:00:01 | 显示全部楼层 |阅读模式
2020 LOONA - 新的.mp4_20201218_201127.520.jpg 2020 LOONA - 新的.mp4_20201218_201133.170.jpg 2020 LOONA - 新的.mp4_20201218_201158.810.jpg 2020 LOONA - 新的.mp4_20201218_201213.314.jpg

General
Complete name                  : 2020 LOONA - 新的.mp4
Format                         : MPEG-4
Format profile                 : Base Media
Codec ID                       : iso5 (iso5/iso6/mp41)
File size                      : 452 MiB
Duration                       : 3 min 12 s
Overall bit rate               : 19.7 Mb/s
Writing application            : Lavf58.41.100

Video
ID                             : 1
Format                         : AVC
Format/Info                    : Advanced Video Codec
Format profile                 : High@L5.2
Format settings                : CABAC / 5 Ref Frames
Format settings, CABAC         : Yes
Format settings, Reference fra : 5 frames
Codec ID                       : avc1
Codec ID/Info                  : Advanced Video Coding
Duration                       : 3 min 12 s
Bit rate                       : 19.4 Mb/s
Width                          : 3 840 pixels
Height                         : 1 634 pixels
Display aspect ratio           : 2.35:1
Frame rate mode                : Constant
Frame rate                     : 23.976 (24000/1001) FPS
Color space                    : YUV
Chroma subsampling             : 4:2:0
Bit depth                      : 8 bits
Scan type                      : Progressive
Bits/(Pixel*Frame)             : 0.129
Stream size                    : 446 MiB (99%)
Writing library                : x264 core 157 r10 d4099dd
Encoding settings              : cabac=1 / ref=5 / deblock=1:0:0 / analyse=0x3:0x113 / me=hex / subme=8 / psy=1 / psy_rd=1.00:0.00 / mixed_ref=1 / me_range=16 / chroma_me=1 / trellis=2 / 8x8dct=1 / cqm=0 / deadzone=21,11 / fast_pskip=1 / chroma_qp_offset=-2 / threads=48 / lookahead_threads=8 / sliced_threads=0 / nr=0 / decimate=1 / interlaced=0 / bluray_compat=0 / stitchable=1 / constrained_intra=0 / bframes=3 / b_pyramid=2 / b_adapt=2 / b_bias=0 / direct=3 / weightb=1 / open_gop=0 / weightp=2 / keyint=infinite / keyint_min=23 / scenecut=40 / intra_refresh=0 / rc_lookahead=50 / rc=crf / mbtree=1 / crf=20.0 / qcomp=0.60 / qpmin=5 / qpmax=69 / qpstep=4 / vbv_maxrate=24200 / vbv_bufsize=66000 / crf_max=0.0 / nal_hrd=none / filler=0 / ip_ratio=1.40 / aq=1:1.00
Color range                    : Limited
Color primaries                : BT.709
Transfer characteristics       : BT.709
Matrix coefficients            : BT.709
Codec configuration box        : avcC

Audio
ID                             : 2
Format                         : AAC LC
Format/Info                    : Advanced Audio Codec Low Complexity
Codec ID                       : mp4a-40-2
Duration                       : 3 min 12 s
Bit rate                       : 253 kb/s
Channel(s)                     : 2 channels
Channel layout                 : L R
Sampling rate                  : 48.0 kHz
Frame rate                     : 46.875 FPS (1024 SPF)
Compression mode               : Lossy
Stream size                    : 5.82 MiB (1%)
Default                        : Yes
Alternate group                : 1



网盘下载失效不补:链接: https://pan.baidu.com/s/12hazHcrEkWrgC9tau6icbg 提取码:
****此区域为收费内容****    需支付 15 金币后可查看立即购买



.
回复

使用道具 举报

40

主题

1319

帖子

3773

积分

4K家园VIP

Rank: 9Rank: 9Rank: 9

积分
3773
发表于 2020-12-25 11:00:05 | 显示全部楼层
OMG!介是啥东东!!!
回复 支持 反对

使用道具 举报

0

主题

1149

帖子

3273

积分

4K家园VIP

Rank: 9Rank: 9Rank: 9

积分
3273
发表于 2020-12-26 01:51:04 | 显示全部楼层
前排,哇咔咔
回复 支持 反对

使用道具 举报

0

主题

1152

帖子

3468

积分

4K家园VIP

Rank: 9Rank: 9Rank: 9

积分
3468
发表于 2020-12-27 20:58:16 | 显示全部楼层
支持楼主,用户楼主,楼主英明呀!!!
回复 支持 反对

使用道具 举报

3

主题

1037

帖子

3127

积分

4K家园VIP

Rank: 9Rank: 9Rank: 9

积分
3127
发表于 2020-12-29 00:10:21 | 显示全部楼层
专业抢沙发的!哈哈
回复 支持 反对

使用道具 举报

0

主题

1

帖子

9

积分

新手上路

Rank: 1

积分
9
发表于 2020-12-30 10:15:16 | 显示全部楼层

-

Yes, really. It was and with me. We can communicate on this theme.
[url=https://megaremont.pro/msk-restavratsiya-vann]https://megaremont.pro/msk-re
回复 支持 反对

使用道具 举报

1

主题

1200

帖子

3444

积分

4K家园VIP

Rank: 9Rank: 9Rank: 9

积分
3444
发表于 2021-1-1 02:20:05 | 显示全部楼层
我了个去,顶了
回复 支持 反对

使用道具 举报

您需要登录后才可以回帖 登录 | 立即注册

本版积分规则

精彩图文
Archiver|手机版|TAG|Sitemap|新帖|专题|联系我们:邮箱: 4kjia.com@gmail.com   

4k家园   ©2019