2020 NCT U -工作4k [2160P/MP4/372MB]

[复制链接]

2152

主题

2427

帖子

1万

积分

超级版主

Rank: 8Rank: 8

积分
19907
 楼主| 发表于 2020-12-23 11:00:00 | 显示全部楼层 |阅读模式
2020 NCT U -工作4k.mp4_20201218_201653.189.jpg 2020 NCT U -工作4k.mp4_20201218_201659.906.jpg 2020 NCT U -工作4k.mp4_20201218_201706.386.jpg 2020 NCT U -工作4k.mp4_20201218_201735.402.jpg

General
Complete name                  : 2020 NCT U -工作4k.mp4
Format                         : MPEG-4
Format profile                 : Base Media
Codec ID                       : isom (isom/iso2/avc1/mp41)
File size                      : 372 MiB
Duration                       : 3 min 7 s
Overall bit rate               : 16.6 Mb/s
Writing application            : Lavf58.12.100
exvr                           : EX1.8.2(C1.0.9)

Video
ID                             : 1
Format                         : AVC
Format/Info                    : Advanced Video Codec
Format profile                 : High@L5.1
Format settings                : CABAC / 4 Ref Frames
Format settings, CABAC         : Yes
Format settings, Reference fra : 4 frames
Codec ID                       : avc1
Codec ID/Info                  : Advanced Video Coding
Duration                       : 3 min 7 s
Bit rate                       : 16.4 Mb/s
Width                          : 3 840 pixels
Height                         : 2 160 pixels
Display aspect ratio           : 16:9
Frame rate mode                : Constant
Frame rate                     : 23.976 (23976/1000) FPS
Color space                    : YUV
Chroma subsampling             : 4:2:0
Bit depth                      : 8 bits
Scan type                      : Progressive
Bits/(Pixel*Frame)             : 0.083
Stream size                    : 368 MiB (99%)
Color range                    : Limited
Color primaries                : BT.709
Transfer characteristics       : BT.709
Matrix coefficients            : BT.709
Codec configuration box        : avcC

Audio
ID                             : 2
Format                         : AAC LC
Format/Info                    : Advanced Audio Codec Low Complexity
Codec ID                       : mp4a-40-2
Duration                       : 3 min 7 s
Bit rate mode                  : Constant
Bit rate                       : 192 kb/s
Channel(s)                     : 2 channels
Channel layout                 : L R
Sampling rate                  : 48.0 kHz
Frame rate                     : 46.875 FPS (1024 SPF)
Compression mode               : Lossy
Stream size                    : 4.30 MiB (1%)
Default                        : Yes
Alternate group                : 1



网盘下载失效不补:链接: https://pan.baidu.com/s/1OD73puWAe8yaIEnlyGhxdg 提取码:
****此区域为收费内容****    需支付 15 金币后可查看立即购买



.
回复

使用道具 举报

3

主题

1176

帖子

3546

积分

4K家园VIP

Rank: 9Rank: 9Rank: 9

积分
3546
发表于 2020-12-23 11:00:04 | 显示全部楼层
前排支持下
回复 支持 反对

使用道具 举报

47

主题

1300

帖子

3692

积分

4K家园VIP

Rank: 9Rank: 9Rank: 9

积分
3692
发表于 2020-12-24 23:58:42 | 显示全部楼层
秀起来~
回复 支持 反对

使用道具 举报

0

主题

1221

帖子

3675

积分

4K家园VIP

Rank: 9Rank: 9Rank: 9

积分
3675
发表于 2020-12-25 10:27:44 | 显示全部楼层
垃圾
回复 支持 反对

使用道具 举报

1

主题

1184

帖子

3572

积分

4K家园VIP

Rank: 9Rank: 9Rank: 9

积分
3572
发表于 2020-12-30 21:54:14 | 显示全部楼层
还有没有别的资源,多分享些
回复 支持 反对

使用道具 举报

3

主题

1193

帖子

3601

积分

4K家园VIP

Rank: 9Rank: 9Rank: 9

积分
3601
发表于 2020-12-31 00:02:25 | 显示全部楼层
支持一下楼主,顶起来
回复 支持 反对

使用道具 举报

您需要登录后才可以回帖 登录 | 立即注册

本版积分规则

精彩图文
Archiver|手机版|TAG|Sitemap|新帖|专题|联系我们:邮箱: 4kjia.com@gmail.com   

4k家园   ©2019