2020 UP10TION - 命运4k.mp4 [2160P/MP4/408MB]

[复制链接]

2164

主题

2442

帖子

2万

积分

超级版主

Rank: 8Rank: 8

积分
20012
 楼主| 发表于 2020-12-24 12:30:00 | 显示全部楼层 |阅读模式
2020 UP10TION - 命运4k.mp4_20201218_202205.263.jpg 2020 UP10TION - 命运4k.mp4_20201218_202211.986.jpg 2020 UP10TION - 命运4k.mp4_20201218_202217.082.jpg 2020 UP10TION - 命运4k.mp4_20201218_202231.994.jpg

General
Complete name                  : 2020 UP10TION - 命运4k.mp4
Format                         : MPEG-4
Format profile                 : Base Media
Codec ID                       : isom (isom/iso2/avc1/mp41)
File size                      : 408 MiB
Duration                       : 3 min 6 s
Overall bit rate               : 18.3 Mb/s
Writing application            : Lavf58.12.100
exvr                           : EX1.8.2(C1.0.9)

Video
ID                             : 1
Format                         : AVC
Format/Info                    : Advanced Video Codec
Format profile                 : High@L5.1
Format settings                : CABAC / 4 Ref Frames
Format settings, CABAC         : Yes
Format settings, Reference fra : 4 frames
Codec ID                       : avc1
Codec ID/Info                  : Advanced Video Coding
Duration                       : 3 min 6 s
Bit rate                       : 18.2 Mb/s
Width                          : 3 840 pixels
Height                         : 2 160 pixels
Display aspect ratio           : 16:9
Frame rate mode                : Constant
Frame rate                     : 23.976 (23976/1000) FPS
Color space                    : YUV
Chroma subsampling             : 4:2:0
Bit depth                      : 8 bits
Scan type                      : Progressive
Bits/(Pixel*Frame)             : 0.091
Stream size                    : 404 MiB (99%)
Color range                    : Limited
Color primaries                : BT.709
Transfer characteristics       : BT.709
Matrix coefficients            : BT.709
Codec configuration box        : avcC

Audio
ID                             : 2
Format                         : AAC LC
Format/Info                    : Advanced Audio Codec Low Complexity
Codec ID                       : mp4a-40-2
Duration                       : 3 min 6 s
Duration_LastFrame             : -1 ms
Bit rate mode                  : Constant
Bit rate                       : 192 kb/s
Channel(s)                     : 2 channels
Channel layout                 : L R
Sampling rate                  : 48.0 kHz
Frame rate                     : 46.875 FPS (1024 SPF)
Compression mode               : Lossy
Stream size                    : 4.27 MiB (1%)
Default                        : Yes
Alternate group                : 1



网盘下载失效不补:链接: https://pan.baidu.com/s/1GdqO7pG-BXMFAP4iFx3DxQ 提取码:
****此区域为收费内容****    需支付 15 金币后可查看立即购买


.
回复

使用道具 举报

3

主题

1517

帖子

4183

积分

4K家园VIP

Rank: 9Rank: 9Rank: 9

积分
4183
发表于 2020-12-24 12:30:05 来自手机 | 显示全部楼层
支持楼主,用户楼主,楼主英明呀!!!
回复 支持 反对

使用道具 举报

52

主题

1300

帖子

3730

积分

4K家园VIP

Rank: 9Rank: 9Rank: 9

积分
3730
发表于 2020-12-25 12:56:23 | 显示全部楼层
求沙发
回复 支持 反对

使用道具 举报

0

主题

15

帖子

106

积分

新手上路

Rank: 1

积分
106
发表于 2020-12-29 15:58:05 | 显示全部楼层

支持楼主,用户楼主,楼主英明呀!!!
回复 支持 反对

使用道具 举报

0

主题

1402

帖子

3806

积分

4K家园VIP

Rank: 9Rank: 9Rank: 9

积分
3806
发表于 2020-12-29 19:31:00 来自手机 | 显示全部楼层
顶起顶起顶起
回复 支持 反对

使用道具 举报

2

主题

1166

帖子

3520

积分

4K家园VIP

Rank: 9Rank: 9Rank: 9

积分
3520
发表于 2021-1-2 13:46:22 | 显示全部楼层
撸过
回复 支持 反对

使用道具 举报

50

主题

1303

帖子

3681

积分

4K家园VIP

Rank: 9Rank: 9Rank: 9

积分
3681
发表于 2021-1-3 10:16:00 来自手机 | 显示全部楼层
路过 帮顶 嘿嘿
回复 支持 反对

使用道具 举报

您需要登录后才可以回帖 登录 | 立即注册

本版积分规则

精彩图文
Archiver|手机版|TAG|Sitemap|新帖|专题|联系我们:邮箱: 4kjia.com@gmail.com   

4k家园   ©2019