2020 命运(MV修复版本)4k [2160P/MP4/309MB]

[复制链接]

2161

主题

2439

帖子

1万

积分

超级版主

Rank: 8Rank: 8

积分
19988
 楼主| 发表于 2020-12-26 09:30:00 | 显示全部楼层 |阅读模式
2020 命运(MV修复版本)4k.mp4_20201218_202513.955.jpg 2020 命运(MV修复版本)4k.mp4_20201218_202520.689.jpg 2020 命运(MV修复版本)4k.mp4_20201218_202528.066.jpg 2020 命运(MV修复版本)4k.mp4_20201218_202537.658.jpg

General
Complete name                  : 2020 命运(MV修复版本)4k.mp4
Format                         : MPEG-4
Format profile                 : Base Media
Codec ID                       : isom (isom/iso2/avc1/mp41)
File size                      : 310 MiB
Duration                       : 3 min 5 s
Overall bit rate               : 14.0 Mb/s
Writing application            : Lavf58.12.100
exvr                           : EX1.8.2(C1.0.9)

Video
ID                             : 1
Format                         : AVC
Format/Info                    : Advanced Video Codec
Format profile                 : High@L5.1
Format settings                : CABAC / 4 Ref Frames
Format settings, CABAC         : Yes
Format settings, Reference fra : 4 frames
Codec ID                       : avc1
Codec ID/Info                  : Advanced Video Coding
Duration                       : 3 min 5 s
Bit rate                       : 13.9 Mb/s
Width                          : 3 840 pixels
Height                         : 2 160 pixels
Display aspect ratio           : 16:9
Frame rate mode                : Constant
Frame rate                     : 23.976 (23976/1000) FPS
Color space                    : YUV
Chroma subsampling             : 4:2:0
Bit depth                      : 8 bits
Scan type                      : Progressive
Bits/(Pixel*Frame)             : 0.070
Stream size                    : 306 MiB (99%)
Color range                    : Limited
Color primaries                : BT.709
Transfer characteristics       : BT.709
Matrix coefficients            : BT.709
Codec configuration box        : avcC

Audio
ID                             : 2
Format                         : AAC LC
Format/Info                    : Advanced Audio Codec Low Complexity
Codec ID                       : mp4a-40-2
Duration                       : 3 min 5 s
****此区域为收费内容****    需支付 15 金币后可查看立即购买

Duration_LastFrame             : -1 ms
Bit rate mode                  : Constant
Bit rate                       : 192 kb/s
Channel(s)                     : 2 channels
Channel layout                 : L R
Sampling rate                  : 48.0 kHz
Frame rate                     : 46.875 FPS (1024 SPF)
Compression mode               : Lossy
Stream size                    : 4.24 MiB (1%)
Default                        : Yes
Alternate group                : 1



网盘下载失效不补:链接: https://pan.baidu.com/s/1xvIvOQr7qztxR6ewktVZfQ 提取码:
****此区域为收费内容****    需支付 15 金币后可查看立即购买


.
回复

使用道具 举报

39

主题

1332

帖子

3788

积分

4K家园VIP

Rank: 9Rank: 9Rank: 9

积分
3788
发表于 2020-12-26 09:30:04 | 显示全部楼层
前排顶起
回复 支持 反对

使用道具 举报

0

主题

1008

帖子

3002

积分

4K家园VIP

Rank: 9Rank: 9Rank: 9

积分
3002
发表于 2020-12-26 09:30:04 来自手机 | 显示全部楼层
纯粹路过,没任何兴趣,仅仅是看在老用户份上回复一下
回复 支持 反对

使用道具 举报

2

主题

1260

帖子

3624

积分

4K家园VIP

Rank: 9Rank: 9Rank: 9

积分
3624
发表于 2020-12-26 09:30:04 | 显示全部楼层
边撸边过
回复 支持 反对

使用道具 举报

3

主题

1195

帖子

3603

积分

4K家园VIP

Rank: 9Rank: 9Rank: 9

积分
3603
发表于 2020-12-26 09:30:04 | 显示全部楼层
前排顶,很好!
回复 支持 反对

使用道具 举报

0

主题

2097

帖子

7484

积分

4K家园VIP

Rank: 9Rank: 9Rank: 9

积分
7484
发表于 2020-12-26 11:47:01 | 显示全部楼层
太好啦&萬分感謝版主的無私發佈分享%
回复 支持 反对

使用道具 举报

0

主题

12

帖子

67

积分

4K家园VIP

Rank: 9Rank: 9Rank: 9

积分
67
发表于 2020-12-26 14:13:58 | 显示全部楼层
回复 支持 反对

使用道具 举报

0

主题

12

帖子

67

积分

4K家园VIP

Rank: 9Rank: 9Rank: 9

积分
67
发表于 2020-12-26 14:14:39 | 显示全部楼层
给力FGDFGFGGGRH
回复 支持 反对

使用道具 举报

0

主题

1181

帖子

3557

积分

4K家园VIP

Rank: 9Rank: 9Rank: 9

积分
3557
发表于 2020-12-29 06:37:54 | 显示全部楼层
额.....这个可以有
回复 支持 反对

使用道具 举报

您需要登录后才可以回帖 登录 | 立即注册

本版积分规则

精彩图文
Archiver|手机版|TAG|Sitemap|新帖|专题|联系我们:邮箱: 4kjia.com@gmail.com   

4k家园   ©2019