[4K电影] 《黑神驹/黑骏马》4K高清版本下载/大小16.88GB

[复制链接]

249

主题

256

帖子

2767

积分

4K家园VIP

Rank: 9Rank: 9Rank: 9

积分
2767
 楼主| 发表于 2020-12-21 15:23:26 | 显示全部楼层 |阅读模式
本帖最后由 最爱4K哟 于 2020-12-29 12:32 编辑

8b7a765e6a6f3.png

◎译  名 黑神驹/黑骏马
◎片  名 Black Beauty
◎年  代 2020
◎产  地 美国,英国,南非,德国,法国
◎类  别 剧情
◎语  言 英语
◎上映日期 2020-11-27(美国网络)
◎IMDb评分 6.3/10 from 1259 users
◎IMDb链接 https://www.imdb.com/title/tt8484160/
◎豆瓣评分 7.1/10 from 365 users
◎豆瓣链接 https://movie.douban.com/subject/33437777/
◎片  长 110分钟
◎导  演 阿什利·阿维斯 Ashley Avis
◎编  剧 阿什利·阿维斯 Ashley Avis / 安娜·瑟维尔 Anna Sewell
◎主  演 凯特·温丝莱特 Kate Winslet
      麦肯吉·弗依 Mackenzie Foy
      伊恩·格雷 Iain Glen
      卡拉姆·林奇 Calam Lynch
      克莱尔·弗兰妮 Claire Forlani
      Fern Deacon
      马特·里皮 Matt Rippy
      比约恩·施泰因巴赫 Bjorn Steinbach
      帕特里克·利斯特 Patrick Lyster
      哈基姆·凯-卡西姆 Hakeem Kae-Kazim
      亚历克斯·安洛斯 Alex Anlos
      大卫·杜卡斯 David Dukas
      达伦-迈耶 Darron Meyer
      德翁·洛茨 Deon Lotz
      阿什利·泰勒 Ashley Taylor
      阿维纳·亚伯拉罕 Avianah Abrahams
      马克·埃尔德金 Mark Elderkin
      彼得·巴特勒 Peter Butler

◎标  签 动物 | 美国 | 剧情 | 凯特·温丝莱特 | 2020 | 美国电影 | 麦肯吉 | 电影

◎简  介

  影片由阿什利·阿维斯自编自导,故事基于安娜·休厄尔1877年完成的同名畅销小说改编。原小说以“黑神驹”的视角进行第一人称表达,描绘出一部属于“黑神驹”的自传体回忆录。影片将着重描绘17岁女孩乔(弗依饰)与“黑神驹”(温斯莱特配音)间深厚的情感纽带,是“黑神驹”使乔走出了父母离世的精神创伤。
Video
ID : 1
Format : HEVC
Format/Info : High Efficiency Video Coding
Format profile : Main@L5@High
Codec ID : V_MPEGH/ISO/HEVC
Duration : 1 h 48 min
Bit rate : 19.4 Mb/s
Width : 3 840 pixels
Height : 2 160 pixels
Display aspect ratio : 16:9
Frame rate mode : Variable
Frame rate : 23.976 (24000/1001/189150) FPS
Color space : YUV
Chroma subsampling : 4:2:0
Bit depth : 8 bits
Bits/(Pixel*Frame) : 0.097
Stream size : 14.7 GiB (96%)
Writing library : x265 3.4:[Linux][GCC 7.5.0][64 bit] 8bit+10bit+12bit
Encoding settings : cpuid=1111039 / frame-threads=1 / wpp / no-pmode / no-pme / no-psnr / no-ssim / log-level=2 / input-csp=1 / input-res=3840x2160 / interlace=0 / total-frames=0 / level-idc=50 / high-tier=1 / uhd-bd=0 / ref=2 / no-allow-non-conformance / repeat-headers / annexb / no-aud / no-hrd / info / hash=0 / no-temporal-layers / no-open-gop / min-keyint=48 / keyint=48 / gop-lookahead=0 / bframes=4 / b-adapt=0 / b-pyramid / bframe-bias=0 / rc-lookahead=48 / lookahead-slices=8 / scenecut=0 / hist-scenecut=0 / radl=0 / no-splice / no-intra-refresh / ctu=32 / min-cu-size=8 / no-rect / no-amp / max-tu-size=16 / tu-inter-depth=2 / tu-intra-depth=2 / limit-tu=0 / rdoq-level=1 / dynamic-rd=0.00 / no-ssim-rd / signhide / no-tskip / nr-intra=0 / nr-inter=0 / no-constrained-intra / no-strong-intra-smoothing / max-merge=3 / limit-refs=1 / no-limit-modes / me=1 / subme=2 / merange=44 / temporal-mvp / no-frame-dup / no-hme / weightp / no-weightb / no-analyze-src-pics / deblock=0:0 / no-sao / no-sao-non-deblock / rd=4 / selective-sao=0 / early-skip / rskip / no-fast-intra / no-tskip-fast / no-cu-lossless / b-intra / no-splitrd-skip / rdpenalty=1 / psy-rd=1.60 / psy-rdoq=5.00 / no-rd-refine / no-lossless / cbqpoffs=0 / crqpoffs=0 / rc=abr / bitrate=20000 / qcomp=0.75 / qpstep=4 / stats-write=0 / stats-read=0 / vbv-maxrate=24000 / vbv-bufsize=40000 / vbv-init=0.9 / ipratio=1.40 / pbratio=1.30 / aq-mode=3 / aq-strength=1.00 / no-cutree / zone-count=0 / no-strict-cbr / qg-size=32 / no-rc-grain / qpmax=69 / qpmin=0 / no-const-vbv / sar=1 / overscan=0 / videoformat=5 / range=0 / colorprim=1 / transfer=1 / colormatrix=1 / chromaloc=0 / display-window=0 / cll=0,0 / min-luma=0 / max-luma=255 / log2-max-poc-lsb=8 / vui-timing-info / vui-hrd-info / slices=1 / no-opt-qp-pps / no-opt-ref-list-length-pps / no-multi-pass-opt-rps / scenecut-bias=0.00 / hist-threshold=0.01 / no-opt-cu-delta-qp / no-aq-motion / no-hdr10 / no-hdr10-opt / no-dhdr10-opt / no-idr-recovery-sei / analysis-reuse-level=0 / analysis-save-reuse-level=0 / analysis-load-reuse-level=0 / scale-factor=0 / refine-intra=0 / refine-inter=0 / refine-mv=1 / refine-ctu-distortion=0 / no-limit-sao / ctu-info=0 / no-lowpass-dct / refine-analysis-type=0 / copy-pic=1 / max-ausize-factor=1.0 / no-dynamic-refine / no-single-sei / no-hevc-aq / no-svt / no-field / qp-adaptation-range=1.00 / no-scenecut-aware-qpconformance-window-offsets / right=0 / bottom=0
Language : English
Default : Yes
Forced : No
Color range : Limited
Color primaries : BT.709
Transfer characteristics : BT.709
Matrix coefficients : BT.709

Audio
ID : 2
Format : E-AC-3 JOC
Format/Info : Enhanced AC-3 with Joint Object Coding
Commercial name : Dolby Digital Plus with Dolby Atmos
Codec ID : A_EAC3
Duration : 1 h 48 min
Bit rate mode : Constant
Bit rate : 768 kb/s
Channel(s) : 6 channels
Channel layout : L R C LFE Ls Rs
Sampling rate : 48.0 kHz
Frame rate : 31.250 FPS (1536 SPF)
Compression mode : Lossy
Stream size : 596 MiB (4%)
Language : English
Service kind : Complete Main
Default : Yes
Forced : No
Complexity index : 16
Number of dynamic objects : 15
Bed channel count : 1 channel
Bed channel configuration : LFE

Text #1
ID : 3
Format : UTF-8
Codec ID : S_TEXT/UTF8
Codec ID/Info : UTF-8 Plain Text
Duration : 1 h 38 min
Bit rate : 73 b/s
Count of elements : 1509
Stream size : 53.4 KiB (0%)
Title : English (SDH)
Language : English
Default : No
Forced : No

Text #2
ID : 4
Format : UTF-8
Codec ID : S_TEXT/UTF8
Codec ID/Info : UTF-8 Plain Text
Duration : 1 h 47 min
Bit rate : 57 b/s
Count of elements : 1262
Stream size : 45.1 KiB (0%)
Title : Dansk
Language : Danish
Default : No
Forced : No

Text #3
ID : 5
Format : UTF-8
Codec ID : S_TEXT/UTF8
Codec ID/Info : UTF-8 Plain Text
Duration : 1 h 47 min
Bit rate : 58 b/s
Count of elements : 1255
Stream size : 46.1 KiB (0%)
Title : Deutsch
Language : German
Default : No
Forced : No

Text #4
ID : 6
Format : UTF-8
Codec ID : S_TEXT/UTF8
Codec ID/Info : UTF-8 Plain Text
Duration : 1 h 47 min
Bit rate : 51 b/s
Count of elements : 1253
Stream size : 40.2 KiB (0%)
Title : Espa?ol
Language : Spanish
Default : No
Forced : No

Text #5
ID : 7
Format : UTF-8
Codec ID : S_TEXT/UTF8
Codec ID/Info : UTF-8 Plain Text
Duration : 1 h 47 min
Bit rate : 57 b/s
Count of elements : 1260
Stream size : 45.1 KiB (0%)
Title : Espa?ol (Latinoamericano)
Language : Spanish
Default : No
Forced : No

Text #6
ID : 8
Format : UTF-8
Codec ID : S_TEXT/UTF8
Codec ID/Info : UTF-8 Plain Text
Duration : 1 h 47 min
Bit rate : 50 b/s
Count of elements : 1255
Stream size : 39.5 KiB (0%)
Title : Suomi
Language : Finnish
Default : No
Forced : No

Text #7
ID : 9
Format : UTF-8
Codec ID : S_TEXT/UTF8
Codec ID/Info : UTF-8 Plain Text
Duration : 1 h 47 min
Bit rate : 57 b/s
Count of elements : 1239
Stream size : 45.0 KiB (0%)
Title : Fran?ais
Language : French
Default : No
Forced : No

Text #8
ID : 10
Format : UTF-8
Codec ID : S_TEXT/UTF8
Codec ID/Info : UTF-8 Plain Text
Duration : 1 h 47 min
Bit rate : 53 b/s
Count of elements : 1266
Stream size : 41.7 KiB (0%)
Title : Indonesian
Language : Indonesian
Default : No
Forced : No

Text #9
ID : 11
Format : UTF-8
Codec ID : S_TEXT/UTF8
Codec ID/Info : UTF-8 Plain Text
Duration : 1 h 47 min
Bit rate : 53 b/s
Count of elements : 1263
Stream size : 42.3 KiB (0%)
Title : Italiano
Language : Italian
Default : No
Forced : No

Text #10
ID : 12
Format : UTF-8
Codec ID : S_TEXT/UTF8
Codec ID/Info : UTF-8 Plain Text
Duration : 1 h 47 min
Bit rate : 50 b/s
Count of elements : 1103
Stream size : 39.9 KiB (0%)
Title : Nederlands
Language : Dutch
Default : No
Forced : No

Text #11
ID : 13
Format : UTF-8
Codec ID : S_TEXT/UTF8
Codec ID/Info : UTF-8 Plain Text
Duration : 1 h 47 min
Bit rate : 57 b/s
Count of elements : 1264
Stream size : 45.3 KiB (0%)
Title : Norsk
Language : Norwegian
Default : No
Forced : No

Text #12
ID : 14
Format : UTF-8
Codec ID : S_TEXT/UTF8
Codec ID/Info : UTF-8 Plain Text
Duration : 1 h 47 min
Bit rate : 55 b/s
Count of elements : 1263
Stream size : 43.4 KiB (0%)
Title : Polski
Language : Polish
Default : No
Forced : No

Text #13
ID : 15
Format : UTF-8
Codec ID : S_TEXT/UTF8
Codec ID/Info : UTF-8 Plain Text
Duration : 1 h 47 min
Bit rate : 54 b/s
Count of elements : 1263
Stream size : 43.0 KiB (0%)
Title : Português
Language : Portuguese
Default : No
Forced : No

Text #14
ID : 16
Format : UTF-8
Codec ID : S_TEXT/UTF8
Codec ID/Info : UTF-8 Plain Text
Duration : 1 h 47 min
Bit rate : 55 b/s
Count of elements : 1258
Stream size : 43.4 KiB (0%)
Title : Português (Brasil)
Language : Portuguese
Default : No
Forced : No

Text #15
ID : 17
Format : UTF-8
Codec ID : S_TEXT/UTF8
Codec ID/Info : UTF-8 Plain Text
Duration : 1 h 47 min
Bit rate : 57 b/s
Count of elements : 1265
Stream size : 45.2 KiB (0%)
Title : Svenska
Language : Swedish
Default : No
Forced : No



18258026388476338853_thumb.png 55086215338104224721_thumb.png 77080928188975563356_thumb.png


游客,如果您要查看本帖隐藏内容请回复

游客,如果您要查看本帖隐藏内容请回复

游客,如果您要查看本帖隐藏内容请回复



.
回复

使用道具 举报

2

主题

1204

帖子

3432

积分

4K家园VIP

Rank: 9Rank: 9Rank: 9

积分
3432
发表于 2020-12-21 15:23:47 来自手机 | 显示全部楼层
多发些资源啊
回复 支持 反对

使用道具 举报

0

主题

2093

帖子

7469

积分

4K家园VIP

Rank: 9Rank: 9Rank: 9

积分
7469
发表于 2020-12-21 19:16:48 | 显示全部楼层
太好啦&萬分感謝版主的無私發佈分享%
回复 支持 反对

使用道具 举报

0

主题

8

帖子

69

积分

新手上路

Rank: 1

积分
69
发表于 2020-12-23 07:53:17 | 显示全部楼层
thanks you foe sharing!
回复 支持 反对

使用道具 举报

0

主题

1

帖子

6

积分

新手上路

Rank: 1

积分
6
发表于 2020-12-23 19:22:12 来自手机 | 显示全部楼层
先来试试
回复

使用道具 举报

1

主题

1480

帖子

4096

积分

4K家园VIP

Rank: 9Rank: 9Rank: 9

积分
4096
发表于 2020-12-25 17:19:05 | 显示全部楼层
呵呵。。。
回复 支持 反对

使用道具 举报

0

主题

1220

帖子

3512

积分

4K家园VIP

Rank: 9Rank: 9Rank: 9

积分
3512
发表于 2021-1-2 07:04:52 | 显示全部楼层
发发呆,回回帖,工作结束~
回复 支持 反对

使用道具 举报

0

主题

1146

帖子

3450

积分

4K家园VIP

Rank: 9Rank: 9Rank: 9

积分
3450
发表于 2021-1-7 07:10:19 | 显示全部楼层
支持支持再支持
回复 支持 反对

使用道具 举报

0

主题

1

帖子

6

积分

新手上路

Rank: 1

积分
6
发表于 2021-1-7 11:42:44 来自手机 | 显示全部楼层
可以下载吗?
回复 支持 反对

使用道具 举报

62

主题

1355

帖子

3927

积分

4K家园VIP

Rank: 9Rank: 9Rank: 9

积分
3927
发表于 2021-1-7 23:40:44 | 显示全部楼层
谢谢楼主
回复 支持 反对

使用道具 举报

您需要登录后才可以回帖 登录 | 立即注册

本版积分规则

精彩图文
Archiver|手机版|TAG|Sitemap|新帖|专题|联系我们:邮箱: 4kjia.com@gmail.com   

4k家园   ©2019