[4K电影] 《云上情歌/云云众生》4K高清版本下载/大小19.35GB

[复制链接]

249

主题

256

帖子

2767

积分

4K家园VIP

Rank: 9Rank: 9Rank: 9

积分
2767
 楼主| 发表于 2020-12-21 15:31:32 | 显示全部楼层 |阅读模式
MV5BYzk5YjUxZDctOTE4Ni00ODc0LThjY2QtNzYzODI5YjEyMWEyXkEyXkFqcGdeQXVyMjAwNzczNTU@._V1_.jpg

◎译  名 云上情歌/云云众生
◎片  名 Clouds
◎年  代 2020
◎产  地 美国
◎类  别 剧情 / 音乐
◎语  言 英语
◎上映日期 2020-10-16(美国)
◎IMDb评分 7.5/10 from 4134 users
◎IMDb链接 https://www.imdb.com/title/tt6473066/
◎豆瓣评分 7.7/10 from 2774 users
◎豆瓣链接 https://movie.douban.com/subject/34967933/
◎片  长 122分钟
◎导  演 贾斯汀·贝尔杜尼 Justin Baldoni
◎编  剧 卡拉·霍顿 Kara Holden / Rudy La Scala
◎主  演 芬·奥尔格斯 Fin Argus
      内芙·坎贝尔 Neve Campbell
      塞布丽娜·卡彭特 Sabrina Carpenter
      麦迪森·伊瑟曼 Madison Iseman
      汤姆·艾弗瑞特·斯科特 Tom Everett Scott
      里尔·莱尔·哈瓦瑞 Lil Rel Howery
      Summer H. Howell
      薇薇安·安迪克特·道格拉斯 Vivien Endicott Douglas
      迪兰·埃弗雷特 Dylan Everett
      杰森·玛耶兹 Jason Mraz
      蒂龙·本斯金 Tyrone Benskin
      路易斯·奥利瓦 Luis Oliva
      艾米丽·芭尔多尼 Emily Baldoni
      亚尼·金 Yaani King
      玛丽莲·迪恩-罗比齐 Mylène Dinh-Robic

◎标  签 音乐 | 青春 | 美国 | 剧情 | 2020 | 美国电影 | 改编 | 電影

◎简  介

  基于真实故事,美国男孩扎克·索比赫14岁被诊断患有骨肉瘤(18岁去世),多次手术和化疗并未遏制癌症发展,在得知自己只剩几个月寿命后,他创作了《云》这首歌,感谢自己身边的人和所经历的一切,乐观面对。
Video
ID : 1
Format : HEVC
Format/Info : High Efficiency Video Coding
Format profile : Main@L5@High
Codec ID : V_MPEGH/ISO/HEVC
Duration : 2 h 0 min
Bit rate : 19.9 Mb/s
Width : 3 840 pixels
Height : 2 160 pixels
Display aspect ratio : 16:9
Frame rate mode : Variable
Frame rate : 23.976 (24000/1001/189150) FPS
Color space : YUV
Chroma subsampling : 4:2:0
Bit depth : 8 bits
Bits/(Pixel*Frame) : 0.100
Stream size : 16.8 GiB (99%)
Writing library : x265 3.4:[Linux][GCC 7.5.0][64 bit] 8bit+10bit+12bit
Encoding settings : cpuid=1111039 / frame-threads=1 / wpp / no-pmode / no-pme / no-psnr / no-ssim / log-level=2 / input-csp=1 / input-res=3840x2160 / interlace=0 / total-frames=0 / level-idc=50 / high-tier=1 / uhd-bd=0 / ref=2 / no-allow-non-conformance / repeat-headers / annexb / no-aud / no-hrd / info / hash=0 / no-temporal-layers / no-open-gop / min-keyint=48 / keyint=48 / gop-lookahead=0 / bframes=4 / b-adapt=0 / b-pyramid / bframe-bias=0 / rc-lookahead=48 / lookahead-slices=8 / scenecut=0 / hist-scenecut=0 / radl=0 / no-splice / no-intra-refresh / ctu=32 / min-cu-size=8 / no-rect / no-amp / max-tu-size=16 / tu-inter-depth=2 / tu-intra-depth=2 / limit-tu=0 / rdoq-level=1 / dynamic-rd=0.00 / no-ssim-rd / signhide / no-tskip / nr-intra=0 / nr-inter=0 / no-constrained-intra / no-strong-intra-smoothing / max-merge=3 / limit-refs=1 / no-limit-modes / me=1 / subme=2 / merange=44 / temporal-mvp / no-frame-dup / no-hme / weightp / no-weightb / no-analyze-src-pics / deblock=0:0 / no-sao / no-sao-non-deblock / rd=4 / selective-sao=0 / early-skip / rskip / no-fast-intra / no-tskip-fast / no-cu-lossless / b-intra / no-splitrd-skip / rdpenalty=1 / psy-rd=1.60 / psy-rdoq=5.00 / no-rd-refine / no-lossless / cbqpoffs=0 / crqpoffs=0 / rc=abr / bitrate=20000 / qcomp=0.75 / qpstep=4 / stats-write=0 / stats-read=0 / vbv-maxrate=24000 / vbv-bufsize=40000 / vbv-init=0.9 / ipratio=1.40 / pbratio=1.30 / aq-mode=3 / aq-strength=1.00 / no-cutree / zone-count=0 / no-strict-cbr / qg-size=32 / no-rc-grain / qpmax=69 / qpmin=0 / no-const-vbv / sar=1 / overscan=0 / videoformat=5 / range=0 / colorprim=1 / transfer=1 / colormatrix=1 / chromaloc=0 / display-window=0 / cll=0,0 / min-luma=0 / max-luma=255 / log2-max-poc-lsb=8 / vui-timing-info / vui-hrd-info / slices=1 / no-opt-qp-pps / no-opt-ref-list-length-pps / no-multi-pass-opt-rps / scenecut-bias=0.00 / hist-threshold=0.01 / no-opt-cu-delta-qp / no-aq-motion / no-hdr10 / no-hdr10-opt / no-dhdr10-opt / no-idr-recovery-sei / analysis-reuse-level=0 / analysis-save-reuse-level=0 / analysis-load-reuse-level=0 / scale-factor=0 / refine-intra=0 / refine-inter=0 / refine-mv=1 / refine-ctu-distortion=0 / no-limit-sao / ctu-info=0 / no-lowpass-dct / refine-analysis-type=0 / copy-pic=1 / max-ausize-factor=1.0 / no-dynamic-refine / no-single-sei / no-hevc-aq / no-svt / no-field / qp-adaptation-range=1.00 / no-scenecut-aware-qpconformance-window-offsets / right=0 / bottom=0
Language : English
Default : Yes
Forced : No
Color range : Limited
Color primaries : BT.709
Transfer characteristics : BT.709
Matrix coefficients : BT.709

Audio
ID : 2
Format : E-AC-3 JOC
Format/Info : Enhanced AC-3 with Joint Object Coding
Commercial name : Dolby Digital Plus with Dolby Atmos
Codec ID : A_EAC3
Duration : 2 h 1 min
Bit rate mode : Constant
Bit rate : 768 kb/s
Channel(s) : 6 channels
Channel layout : L R C LFE Ls Rs
Sampling rate : 48.0 kHz
Frame rate : 31.250 FPS (1536 SPF)
Compression mode : Lossy
Stream size : 222 MiB (1%)
Language : English
Service kind : Complete Main
Default : Yes
Forced : No
Complexity index : 16
Number of dynamic objects : 15
Bed channel count : 1 channel
Bed channel configuration : LFE

Text #1
ID : 3
Format : UTF-8
Codec ID : S_TEXT/UTF8
Codec ID/Info : UTF-8 Plain Text
Duration : 1 h 58 min
Bit rate : 70 b/s
Count of elements : 1684
Stream size : 61.1 KiB (0%)
Title : English (SDH)
Language : English
Default : No
Forced : No

Text #2
ID : 4
Format : UTF-8
Codec ID : S_TEXT/UTF8
Codec ID/Info : UTF-8 Plain Text
Duration : 2 h 0 min
Bit rate : 59 b/s
Count of elements : 1439
Stream size : 52.9 KiB (0%)
Title : Dansk
Language : Danish
Default : No
Forced : No

Text #3
ID : 5
Format : UTF-8
Codec ID : S_TEXT/UTF8
Codec ID/Info : UTF-8 Plain Text
Duration : 2 h 0 min
Bit rate : 55 b/s
Count of elements : 1432
Stream size : 49.4 KiB (0%)
Title : Deutsch
Language : German
Default : No
Forced : No

Text #4
ID : 6
Format : UTF-8
Codec ID : S_TEXT/UTF8
Codec ID/Info : UTF-8 Plain Text
Duration : 2 h 0 min
Bit rate : 55 b/s
Count of elements : 1381
Stream size : 48.7 KiB (0%)
Title : Espa?ol
Language : Spanish
Default : No
Forced : No

Text #5
ID : 7
Format : UTF-8
Codec ID : S_TEXT/UTF8
Codec ID/Info : UTF-8 Plain Text
Duration : 2 h 0 min
Bit rate : 53 b/s
Count of elements : 1341
Stream size : 46.9 KiB (0%)
Title : Espa?ol (Latinoamericano)
Language : Spanish
Default : No
Forced : No

Text #6
ID : 8
Format : UTF-8
Codec ID : S_TEXT/UTF8
Codec ID/Info : UTF-8 Plain Text
Duration : 2 h 0 min
Bit rate : 54 b/s
Count of elements : 1436
Stream size : 48.3 KiB (0%)
Title : Suomi
Language : Finnish
Default : No
Forced : No

Text #7
ID : 9
Format : UTF-8
Codec ID : S_TEXT/UTF8
Codec ID/Info : UTF-8 Plain Text
Duration : 2 h 0 min
Bit rate : 52 b/s
Count of elements : 1430
Stream size : 46.7 KiB (0%)
Title : Fran?ais
Language : French
Default : No
Forced : No

Text #8
ID : 10
Format : UTF-8
Codec ID : S_TEXT/UTF8
Codec ID/Info : UTF-8 Plain Text
Duration : 1 h 58 min
Bit rate : 57 b/s
Count of elements : 1435
Stream size : 50.0 KiB (0%)
Title : Indonesian
Language : Indonesian
Default : No
Forced : No

Text #9
ID : 11
Format : UTF-8
Codec ID : S_TEXT/UTF8
Codec ID/Info : UTF-8 Plain Text
Duration : 2 h 0 min
Bit rate : 51 b/s
Count of elements : 1375
Stream size : 45.7 KiB (0%)
Title : Italiano
Language : Italian
Default : No
Forced : No

Text #10
ID : 12
Format : UTF-8
Codec ID : S_TEXT/UTF8
Codec ID/Info : UTF-8 Plain Text
Duration : 2 h 0 min
Bit rate : 45 b/s
Count of elements : 1223
Stream size : 40.5 KiB (0%)
Title : Nederlands
Language : Dutch
Default : No
Forced : No

Text #11
ID : 13
Format : UTF-8
Codec ID : S_TEXT/UTF8
Codec ID/Info : UTF-8 Plain Text
Duration : 2 h 0 min
Bit rate : 55 b/s
Count of elements : 1436
Stream size : 48.6 KiB (0%)
Title : Norsk
Language : Norwegian
Default : No
Forced : No

Text #12
ID : 14
Format : UTF-8
Codec ID : S_TEXT/UTF8
Codec ID/Info : UTF-8 Plain Text
Duration : 2 h 0 min
Bit rate : 51 b/s
Count of elements : 1438
Stream size : 45.9 KiB (0%)
Title : Polski
Language : Polish
Default : No
Forced : No

Text #13
ID : 15
Format : UTF-8
Codec ID : S_TEXT/UTF8
Codec ID/Info : UTF-8 Plain Text
Duration : 2 h 0 min
Bit rate : 53 b/s
Count of elements : 1408
Stream size : 47.5 KiB (0%)
Title : Português
Language : Portuguese
Default : No
Forced : No

Text #14
ID : 16
Format : UTF-8
Codec ID : S_TEXT/UTF8
Codec ID/Info : UTF-8 Plain Text
Duration : 2 h 0 min
Bit rate : 53 b/s
Count of elements : 1397
Stream size : 47.2 KiB (0%)
Title : Português (Brasil)
Language : Portuguese
Default : No
Forced : No

Text #15
ID : 17
Format : UTF-8
Codec ID : S_TEXT/UTF8
Codec ID/Info : UTF-8 Plain Text
Duration : 2 h 0 min
Bit rate : 58 b/s
Count of elements : 1440
Stream size : 51.4 KiB (0%)
Title : Svenska
Language : Swedish
Default : No
Forced : No


15390285338787379662_thumb.png 58351824884933474256_thumb.png 85346550244257359209_thumb.png


游客,如果您要查看本帖隐藏内容请回复

游客,如果您要查看本帖隐藏内容请回复



.
回复

使用道具 举报

1

主题

1180

帖子

3556

积分

4K家园VIP

Rank: 9Rank: 9Rank: 9

积分
3556
发表于 2020-12-21 15:31:44 来自手机 | 显示全部楼层
锄禾日当午,发帖真辛苦。谁知坛中餐,帖帖皆辛苦!
回复 支持 反对

使用道具 举报

0

主题

2093

帖子

7469

积分

4K家园VIP

Rank: 9Rank: 9Rank: 9

积分
7469
发表于 2020-12-21 19:16:34 | 显示全部楼层
太好啦&萬分感謝版主的無私發佈分享%
回复 支持 反对

使用道具 举报

2

主题

1168

帖子

3358

积分

4K家园VIP

Rank: 9Rank: 9Rank: 9

积分
3358
发表于 2020-12-22 03:47:48 | 显示全部楼层
确实不错,顶先
回复 支持 反对

使用道具 举报

0

主题

1465

帖子

3979

积分

中级会员

Rank: 4

积分
3979
发表于 2020-12-23 10:08:32 | 显示全部楼层
边撸边过
回复 支持 反对

使用道具 举报

50

主题

1336

帖子

3826

积分

4K家园VIP

Rank: 9Rank: 9Rank: 9

积分
3826
发表于 2020-12-24 06:49:42 | 显示全部楼层
顶起出售广告位
回复 支持 反对

使用道具 举报

0

主题

22

帖子

81

积分

新手上路

Rank: 1

积分
81
发表于 2020-12-24 23:10:29 | 显示全部楼层
nengxiazaikankanma
回复 支持 反对

使用道具 举报

1

主题

1126

帖子

3396

积分

4K家园VIP

Rank: 9Rank: 9Rank: 9

积分
3396
发表于 2020-12-26 15:45:41 | 显示全部楼层
传说中的沙发???哇卡卡
回复 支持 反对

使用道具 举报

0

主题

2

帖子

12

积分

新手上路

Rank: 1

积分
12
发表于 2020-12-29 23:04:29 | 显示全部楼层
感谢楼主的分享
回复 支持 反对

使用道具 举报

您需要登录后才可以回帖 登录 | 立即注册

本版积分规则

精彩图文
Archiver|手机版|TAG|Sitemap|新帖|专题|联系我们:邮箱: 4kjia.com@gmail.com   

4k家园   ©2019