2020 纪录片《世界风光-堪察加半岛》 4K高清下载/大小395MB

[复制链接]

2175

主题

2453

帖子

2万

积分

超级版主

Rank: 8Rank: 8

积分
20094
 楼主| 发表于 2020-12-29 20:47:26 | 显示全部楼层 |阅读模式
本帖最后由 叽里呱啦 于 2021-1-2 15:18 编辑

堪察加半岛(2020)WEBRip 2160p.mkv_20201228_221651.079.jpg 堪察加半岛(2020)WEBRip 2160p.mkv_20201228_221704.400.jpg 堪察加半岛(2020)WEBRip 2160p.mkv_20201228_221716.448.jpg 堪察加半岛(2020)WEBRip 2160p.mkv_20201228_221755.824.jpg 堪察加半岛(2020)WEBRip 2160p.mkv_20201228_221808.864.jpg 堪察加半岛(2020)WEBRip 2160p.mkv_20201228_221900.624.jpg

国家/地区:俄罗斯
持续时间: 00 : 02 : 59
翻译:不需要

文件
编解码器: MPEG-4 AVC
质量: WEBRip 2160p
视频: 4096× 2160、23.2 Mbps,24 fps
音频: AAC,2频道,253千比特


剧情解说:

        堪察加半岛是欧亚大陆的俄罗斯境内东北部的半岛上。它被鄂霍次克海从西部冲走,被白令海和太平洋从东部冲走


General
Complete name                  : 堪察加半岛(2020)WEBRip 2160p.mkv
Format                         : Matroska
Format version                 : Version 4
File size                      : 396 MiB
Duration                       : 2 min 22 s
Overall bit rate               : 23.3 Mb/s
Encoded date                   : UTC 2020-12-27 19:57:38
Writing application            : mkvmerge v51.0.0 ('I Wish') 64-bit
Writing library                : libebml v1.4.0 + libmatroska v1.6.2

Video
ID                             : 1
Format                         : AVC
Format/Info                    : Advanced Video Codec
Format profile                 : High@L5.2
Format settings                : CABAC / 5 Ref Frames
Format settings, CABAC         : Yes
Format settings, Reference fra : 5 frames
Codec ID                       : V_MPEG4/ISO/AVC
Duration                       : 2 min 22 s
Bit rate                       : 23.0 Mb/s
Width                          : 3 840 pixels
Height                         : 2 160 pixels
Display aspect ratio           : 16:9
Frame rate mode                : Constant
Frame rate                     : 25.000 FPS
Color space                    : YUV
Chroma subsampling             : 4:2:0
Bit depth                      : 8 bits
Scan type                      : Progressive
Bits/(Pixel*Frame)             : 0.111
Stream size                    : 391 MiB (99%)
Writing library                : x264 core 157 r10 d4099dd
Encoding settings              : cabac=1 / ref=5 / deblock=1:0:0 / analyse=0x3:0x113 / me=hex / subme=8 / psy=1 / psy_rd=1.00:0.00 / mixed_ref=1 / me_range=16 / chroma_me=1 / trellis=2 / 8x8dct=1 / cqm=0 / deadzone=21,11 / fast_pskip=1 / chroma_qp_offset=-2 / threads=48 / lookahead_threads=8 / sliced_threads=0 / nr=0 / decimate=1 / interlaced=0 / bluray_compat=0 / stitchable=1 / constrained_intra=0 / bframes=3 / b_pyramid=2 / b_adapt=2 / b_bias=0 / direct=3 / weightb=1 / open_gop=0 / weightp=2 / keyint=infinite / keyint_min=25 / scenecut=40 / intra_refresh=0 / rc_lookahead=50 / rc=crf / mbtree=1 / crf=20.0 / qcomp=0.60 / qpmin=5 / qpmax=69 / qpstep=4 / vbv_maxrate=24200 / vbv_bufsize=66000 / crf_max=0.0 / nal_hrd=none / filler=0 / ip_ratio=1.40 / aq=1:1.00
Default                        : Yes
Forced                         : No
Color range                    : Limited
Color primaries                : BT.709
Transfer characteristics       : BT.709
Matrix coefficients            : BT.709

Audio
ID                             : 2
Format                         : AAC LC
Format/Info                    : Advanced Audio Codec Low Complexity
Codec ID                       : A_AAC-2
Duration                       : 2 min 22 s
Bit rate                       : 253 kb/s
Channel(s)                     : 2 channels
Channel layout                 : L R
Sampling rate                  : 48.0 kHz
Frame rate                     : 46.875 FPS (1024 SPF)
Compression mode               : Lossy
Stream size                    : 4.31 MiB (1%)
Default                        : Yes
Forced                         : No




网盘下载失效不补:链接: https://pan.baidu.com/s/1ptrZAfzoEH1AISYKFe_tQw 提取码:
****此区域为收费内容****    需支付 15 金币后可查看立即购买



.



堪察加半岛(2020)WEBRip 2160p.torrent

16.48 KB, 下载次数: 0, 下载积分: 金币 -10

售价: 15 金币  [记录]  [购买]

回复

使用道具 举报

0

主题

1164

帖子

3502

积分

4K家园VIP

Rank: 9Rank: 9Rank: 9

积分
3502
发表于 2020-12-29 20:47:59 | 显示全部楼层
为毛老子总也抢不到沙发?!!
回复 支持 反对

使用道具 举报

0

主题

2169

帖子

7612

积分

4K家园VIP

Rank: 9Rank: 9Rank: 9

积分
7612
发表于 2020-12-31 21:28:59 | 显示全部楼层
太好啦&萬分感謝版主的無私發佈分享%
回复 支持 反对

使用道具 举报

1

主题

1286

帖子

3710

积分

4K家园VIP

Rank: 9Rank: 9Rank: 9

积分
3710
发表于 2021-1-1 04:07:42 | 显示全部楼层
我了个去,顶了
回复 支持 反对

使用道具 举报

1

主题

1522

帖子

4174

积分

4K家园VIP

Rank: 9Rank: 9Rank: 9

积分
4174
发表于 2021-1-4 22:06:02 | 显示全部楼层
回个帖子,下班咯~
回复 支持 反对

使用道具 举报

0

主题

2

帖子

12

积分

新手上路

Rank: 1

积分
12
发表于 2021-1-5 03:29:08 来自手机 | 显示全部楼层
我要
回复

使用道具 举报

49

主题

1290

帖子

3676

积分

4K家园VIP

Rank: 9Rank: 9Rank: 9

积分
3676
发表于 2021-1-5 10:54:14 | 显示全部楼层
没看懂
回复 支持 反对

使用道具 举报

3

主题

1048

帖子

3170

积分

4K家园VIP

Rank: 9Rank: 9Rank: 9

积分
3170
发表于 2021-1-14 21:57:42 来自手机 | 显示全部楼层
我也来顶一下..
回复 支持 反对

使用道具 举报

您需要登录后才可以回帖 登录 | 立即注册

本版积分规则

精彩图文
Archiver|手机版|TAG|Sitemap|新帖|专题|联系我们:邮箱: 4kjia.com@gmail.com   

4k家园   ©2019