[4K电影] [4K首发资源]《我的一生/今生今世》4K高清版本下载/6.72GB

[复制链接]

240

主题

247

帖子

2670

积分

4K家园VIP

Rank: 9Rank: 9Rank: 9

积分
2670
 楼主| 发表于 2020-12-30 11:44:07 | 显示全部楼层 |阅读模式
本帖最后由 最爱4K哟 于 2020-12-30 12:13 编辑

p2623333399.webp.jpg

◎译  名 我的一生/今生今世
◎片  名 All My Life
◎年  代 2020
◎产  地 美国
◎类  别 剧情 / 爱情
◎语  言 英语
◎上映日期 2020-10-23(英国) / 2020-12-04(美国)
◎IMDb评分 6.3/10 from 368 users
◎IMDb链接 https://www.imdb.com/title/tt8305852/
◎豆瓣评分 /10 from 0 users
◎豆瓣链接 https://movie.douban.com/subject/34849192/
◎片  长 93分钟
◎导  演 马克·迈尔斯 Marc Meyers
◎编  剧 托德·罗森博格 Todd Rosenberg
◎主  演 杰西卡·罗德 Jessica Rothe
      岑勇康 Harry Shum Jr.
      玛丽埃尔·斯科特 Marielle Scott
      爱沃·卡拉丹 Ever Carradine
      基拉·塞特尔 Keala Settle
      杰·费罗尔 Jay Pharoah
      乔什·布雷纳 Josh Brener
      凯尔·艾伦 Kyle Allen
      乔恩·鲁德尼茨基 Jon Rudnitsky
      克莉希·菲茨 Chrissie Fit
      安贾利·比玛尼 Anjali Bhimani
      马里奥·坎通 Mario Cantone
      肯尼思·肯特·布赖恩 Kenneth Kynt Bryan
      迈克尔·马西尼 Michael Masini
      约瑟夫·波利昆 Joseph Poliquin
      托尼亚·马尔多纳多 Tonya Maldonado
      杰奎琳·哈里斯·马瑟恩 Jacqueline Harris Matherne
      维多利亚·佩吉·沃特金斯 Victoria Paige Watkins


◎简  介

  本片根据真实故事改编,剧本一度登上好莱坞剧本黑名单,马克·迈尔斯([人力资本])执导。影片讲述一对恋人索罗门和简在筹备婚礼期间,索罗门查出罹患肝癌,两人为完成心愿,决定将婚礼提前,在善心捐助下,他们如愿完成婚礼,四个月后,索罗门离世。

General
Complete name                  : All.My.Life.2020.HDR.2160p.WEB.HEVC.DDP5.1-DDR.mkv
Format                         : Matroska
Format version                 : Version 4
File size                      : 6.72 GiB
Duration                       : 1 h 31 min
Overall bit rate               : 10.5 Mb/s
Encoded date                   : UTC 2020-12-28 04:50:49
Writing application            : mkvmerge v51.0.0 ('I Wish') 64-bit
Writing library                : libebml v1.4.0 + libmatroska v1.6.2

Video
ID                             : 1
Format                         : HEVC
Format/Info                    : High Efficiency Video Coding
Format profile                 : Main 10@L5.1@High
Codec ID                       : V_MPEGH/ISO/HEVC
Duration                       : 1 h 31 min
Bit rate                       : 9 867 kb/s
Width                          : 3 840 pixels
Height                         : 1 608 pixels
Display aspect ratio           : 2.40:1
Frame rate mode                : Constant
Frame rate                     : 23.976 (24000/1001) FPS
Color space                    : YUV
Chroma subsampling             : 4:2:0
Bit depth                      : 10 bits
Bits/(Pixel*Frame)             : 0.067
Stream size                    : 6.31 GiB (94%)
Language                       : English
Default                        : Yes
Forced                         : No
Color range                    : Limited
Color primaries                : BT.2020
Transfer characteristics       : PQ
Matrix coefficients            : BT.2020 non-constant
Maximum Content Light Level    : 979 cd/m2
Maximum Frame-Average Light Le : 402 cd/m2

Audio
ID                             : 2
Format                         : E-AC-3
Format/Info                    : Enhanced AC-3
Commercial name                : Dolby Digital Plus
Codec ID                       : A_EAC3
Duration                       : 1 h 31 min
Bit rate mode                  : Constant
Bit rate                       : 640 kb/s
Channel(s)                     : 6 channels
Channel layout                 : L R C LFE Ls Rs
Sampling rate                  : 48.0 kHz
Frame rate                     : 31.250 FPS (1536 SPF)
Compression mode               : Lossy
Delay relative to video        : 950 ms
Stream size                    : 419 MiB (6%)
Language                       : English
Service kind                   : Complete Main
Default                        : Yes
Forced                         : No


All.My.Life.2020.HDR.2160p.WEB.HEVC.DDP5.1-DDR.mkv_20201230_114016.885.jpg All.My.Life.2020.HDR.2160p.WEB.HEVC.DDP5.1-DDR.mkv_20201230_114025.446.jpg All.My.Life.2020.HDR.2160p.WEB.HEVC.DDP5.1-DDR.mkv_20201230_114032.373.jpg All.My.Life.2020.HDR.2160p.WEB.HEVC.DDP5.1-DDR.mkv_20201230_114053.533.jpg All.My.Life.2020.HDR.2160p.WEB.HEVC.DDP5.1-DDR.mkv_20201230_114102.045.jpg All.My.Life.2020.HDR.2160p.WEB.HEVC.DDP5.1-DDR.mkv_20201230_114115.437.jpg


提示:请用qBittorrent软件下载,谢谢!

磁力链接下载:
****此区域为收费内容****    需支付 15 金币后可查看立即购买




.
回复

使用道具 举报

36

主题

1235

帖子

3525

积分

4K家园VIP

Rank: 9Rank: 9Rank: 9

积分
3525
发表于 2020-12-30 11:47:27 | 显示全部楼层
有4K版卡,下个看下
回复 支持 反对

使用道具 举报

0

主题

2030

帖子

7335

积分

4K家园VIP

Rank: 9Rank: 9Rank: 9

积分
7335
发表于 2020-12-30 11:50:12 | 显示全部楼层
太好啦&萬分感謝版主的無私發佈分享%
回复 支持 反对

使用道具 举报

0

主题

1533

帖子

4201

积分

4K家园VIP

Rank: 9Rank: 9Rank: 9

积分
4201
发表于 2020-12-30 23:04:08 来自手机 | 显示全部楼层
路过
回复 支持 反对

使用道具 举报

1

主题

1158

帖子

3338

积分

4K家园VIP

Rank: 9Rank: 9Rank: 9

积分
3338
发表于 2021-1-4 08:48:51 | 显示全部楼层
前排,哇咔咔
回复 支持 反对

使用道具 举报

49

主题

1284

帖子

3658

积分

4K家园VIP

Rank: 9Rank: 9Rank: 9

积分
3658
发表于 2021-1-6 23:38:15 | 显示全部楼层
没明白
回复 支持 反对

使用道具 举报

0

主题

1157

帖子

3485

积分

4K家园VIP

Rank: 9Rank: 9Rank: 9

积分
3485
发表于 2021-1-7 23:05:25 | 显示全部楼层
4K家园资源不错,前排支持
回复 支持 反对

使用道具 举报

您需要登录后才可以回帖 登录 | 立即注册

本版积分规则

精彩图文
Archiver|手机版|TAG|Sitemap|新帖|专题|联系我们:邮箱: 4kjia.com@gmail.com   

4k家园   ©2019