[4K电影] [4K首发资源]《铃儿响叮当》4K高清版本下载/11.76GB

[复制链接]

246

主题

253

帖子

2734

积分

4K家园VIP

Rank: 9Rank: 9Rank: 9

积分
2734
 楼主| 发表于 2020-12-30 13:57:04 | 显示全部楼层 |阅读模式
本帖最后由 最爱4K哟 于 2020-12-30 21:01 编辑

f24b3df90eb674e0c8a04dde7efdf76d.jpg


◎译  名 铃儿响叮当/圣诞响叮当:奇迹旅程/圣诞铃铃铃:奇迹旅程/Jingle Jangle
◎片  名 Jingle Jangle: A Christmas Journey
◎年  代 2020
◎产  地 美国
◎类  别 歌舞/家庭/奇幻
◎语  言 英语
◎上映日期 2020-11-13(美国)
◎IMDb评分  6.6/10 from 4,354 users
◎IMDb链接  https://www.imdb.com/title/tt7736496/
◎豆瓣评分 6.1/10 from 82 users
◎豆瓣链接 https://douban.com/subject/33399972/
◎片  长 124分钟
◎导  演 大卫·E·塔尔伯特 David E. Talbert
◎编  剧 大卫·E·塔尔伯特 David E. Talbert
◎主  演 福里斯特·惠特克 Forest Whitaker
       科甘-迈克尔·凯 Keegan-Michael Key
       休·博纳维尔 Hugh Bonneville
       阿尼卡·诺尼·罗斯 Anika Noni Rose
       菲利西亚·拉斯海德 Phylicia Rashad
       瑞奇·马丁 Ricky Martin
       邓肯·艾尔利·詹姆斯 Duncan Airlie James
       贾斯汀·康维尔 Justin Cornwell
       约翰·艾伦·罗伯茨 John Alan Roberts
       贝恩·科拉科 Bern Collaço



◎简  介

  讲述一家玩具制造商(惠特克饰)努力使他的神奇新发明能在圣诞节前发挥作用,永远改变生活的故事。

General
Complete name                  : Jingle.Jangle.A.Christmas.Journey.2020.RERiP.HDR.2160p.WEBRip.x265-iNTENSO[TGx]\Jingle.Jangle.A.Christmas.Journey.2020.RERiP.HDR.2160p.WEBRip.x265-iNTENSO.mkv
Format                         : Matroska
Format version                 : Version 4
File size                      : 11.6 GiB
Duration                       : 2 h 4 min
Overall bit rate               : 13.3 Mb/s
Encoded date                   : UTC 2020-12-28 09:16:24
Writing application            : mkvmerge v8.2.0 ('World of Adventure') 32bit
Writing library                : libebml v1.3.1 + libmatroska v1.4.2
IsTruncated                    : Yes

Video
ID                             : 1
Format                         : HEVC
Format/Info                    : High Efficiency Video Coding
Format profile                 : Main 10@L5.1@High
HDR format                     : SMPTE ST 2086, HDR10 compatible
Codec ID                       : V_MPEGH/ISO/HEVC
Duration                       : 2 h 4 min
Bit rate                       : 12.3 Mb/s
Width                          : 3 840 pixels
Height                         : 2 080 pixels
Display aspect ratio           : 1.85:1
Frame rate mode                : Constant
Frame rate                     : 24.000 FPS
Color space                    : YUV
Chroma subsampling             : 4:2:0 (Type 2)
Bit depth                      : 10 bits
Bits/(Pixel*Frame)             : 0.064
Stream size                    : 10.7 GiB (92%)
Writing library                : x265 3.4+27-g241342f25:[Windows][GCC 9.3.0][64 bit] 10bit
Encoding settings              : cpuid=1111039 / frame-threads=4 / numa-pools=16 / wpp / no-pmode / no-pme / no-psnr / no-ssim / log-level=2 / input-csp=1 / input-res=3840x2080 / interlace=0 / total-frames=0 / level-idc=51 / high-tier=1 / uhd-bd=0 / ref=4 / no-allow-non-conformance / repeat-headers / annexb / no-aud / no-hrd / info / hash=0 / no-temporal-layers / no-open-gop / min-keyint=24 / keyint=250 / gop-lookahead=0 / bframes=3 / b-adapt=2 / b-pyramid / bframe-bias=0 / rc-lookahead=20 / lookahead-slices=8 / scenecut=40 / hist-scenecut=0 / radl=0 / no-splice / no-intra-refresh / ctu=64 / min-cu-size=8 / no-rect / no-amp / max-tu-size=32 / tu-inter-depth=1 / tu-intra-depth=1 / limit-tu=0 / rdoq-level=0 / dynamic-rd=0.00 / no-ssim-rd / signhide / no-tskip / nr-intra=0 / nr-inter=0 / no-constrained-intra / no-strong-intra-smoothing / max-merge=3 / limit-refs=1 / no-limit-modes / me=1 / subme=2 / merange=57 / temporal-mvp / no-frame-dup / no-hme / weightp / no-weightb / no-analyze-src-pics / deblock=-3:-3 / no-sao / no-sao-non-deblock / rd=3 / selective-sao=0 / early-skip / rskip / no-fast-intra / no-tskip-fast / no-cu-lossless / b-intra / no-splitrd-skip / rdpenalty=0 / psy-rd=2.00 / psy-rdoq=0.00 / no-rd-refine / no-lossless / cbqpoffs=0 / crqpoffs=0 / rc=crf / crf=19.0 / qcomp=0.60 / qpstep=4 / stats-write=0 / stats-read=0 / vbv-maxrate=160000 / vbv-bufsize=160000 / vbv-init=0.9 / min-vbv-fullness=50.0 / max-vbv-fullness=80.0 / crf-max=0.0 / crf-min=0.0 / ipratio=1.40 / pbratio=1.30 / aq-mode=2 / aq-strength=1.00 / no-cutree / zone-count=0 / no-strict-cbr / qg-size=32 / no-rc-grain / qpmax=69 / qpmin=0 / no-const-vbv / sar=0 / overscan=0 / videoformat=5 / range=0 / colorprim=9 / transfer=16 / colormatrix=9 / chromaloc=1 / chromaloc-top=2 / chromaloc-bottom=2 / display-window=0 / master-display=G(13250,34500)B(7500,3000)R(34000,16000)WP(15635,16450)L(40000000,50) / cll=3865,485 / min-luma=0 / max-luma=1023 / log2-max-poc-lsb=8 / vui-timing-info / vui-hrd-info / slices=1 / no-opt-qp-pps / no-opt-ref-list-length-pps / no-multi-pass-opt-rps / scenecut-bias=0.05 / hist-threshold=0.03 / no-opt-cu-delta-qp / no-aq-motion / hdr10 / hdr10-opt / no-dhdr10-opt / no-idr-recovery-sei / analysis-reuse-level=0 / analysis-save-reuse-level=0 / analysis-load-reuse-level=0 / scale-factor=0 / refine-intra=0 / refine-inter=0 / refine-mv=1 / refine-ctu-distortion=0 / no-limit-sao / ctu-info=0 / no-lowpass-dct / refine-analysis-type=0 / copy-pic=1 / max-ausize-factor=1.0 / no-dynamic-refine / no-single-sei / no-hevc-aq / no-svt / no-field / qp-adaptation-range=1.00 / no-scenecut-aware-qpconformance-window-offsets / right=0 / bottom=0 / decoder-max-rate=0 / no-vbv-live-multi-pass
Language                       : English
Default                        : Yes
Forced                         : No
Color range                    : Limited
Color primaries                : BT.2020
Transfer characteristics       : PQ
Matrix coefficients            : BT.2020 non-constant
Mastering display color primar : Display P3
Mastering display luminance    : min: 0.0050 cd/m2, max: 4000 cd/m2
Maximum Content Light Level    : 3865 cd/m2
Maximum Frame-Average Light Le : 485 cd/m2

Audio
ID                             : 2
Format                         : E-AC-3 JOC
Format/Info                    : Enhanced AC-3 with Joint Object Coding
Commercial name                : Dolby Digital Plus with Dolby Atmos
Codec ID                       : A_EAC3
Duration                       : 2 h 4 min
Bit rate mode                  : Constant
Bit rate                       : 768 kb/s
Channel(s)                     : 6 channels
Channel layout                 : L R C LFE Ls Rs
Sampling rate                  : 48.0 kHz
Frame rate                     : 31.250 FPS (1536 SPF)
Compression mode               : Lossy
Delay relative to video        : 18 ms
Stream size                    : 684 MiB (6%)
Title                          : ENG E-AC3 5.1 640kbit
Language                       : English
Service kind                   : Complete Main
Default                        : No
Forced                         : No
Complexity index               : 16
Number of dynamic objects      : 15
Bed channel count              : 1 channel
Bed channel configuration      : LFE

Text
ID                             : 3
Format                         : UTF-8
Codec ID                       : S_TEXT/UTF8
Codec ID/Info                  : UTF-8 Plain Text
Language                       : English
Default                        : No
Forced                         : No

Jingle.Jangle.A.Christmas.Journey.2020.RERiP.HDR.2160p.WEBRip.x265-iNTENSO.mkv_2.jpg Jingle.Jangle.A.Christmas.Journey.2020.RERiP.HDR.2160p.WEBRip.x265-iNTENSO.mkv_2.jpg Jingle.Jangle.A.Christmas.Journey.2020.RERiP.HDR.2160p.WEBRip.x265-iNTENSO.mkv_2.jpg Jingle.Jangle.A.Christmas.Journey.2020.RERiP.HDR.2160p.WEBRip.x265-iNTENSO.mkv_2.jpg Jingle.Jangle.A.Christmas.Journey.2020.RERiP.HDR.2160p.WEBRip.x265-iNTENSO.mkv_2.jpg Jingle.Jangle.A.Christmas.Journey.2020.RERiP.HDR.2160p.WEBRip.x265-iNTENSO.mkv_2.jpg


提示:请用qBittorrent软件可以全速下载,谢谢!

磁力链接下载:
****此区域为收费内容****    需支付 15 金币后可查看立即购买



qBittorrent下载软件官网地址:
游客,如果您要查看本帖隐藏内容请回复

.
回复

使用道具 举报

2

主题

1560

帖子

4310

积分

4K家园VIP

Rank: 9Rank: 9Rank: 9

积分
4310
发表于 2020-12-30 13:58:07 来自手机 | 显示全部楼层
是爷们的娘们的都帮顶!大力支持
回复 支持 反对

使用道具 举报

0

主题

1174

帖子

3534

积分

4K家园VIP

Rank: 9Rank: 9Rank: 9

积分
3534
发表于 2020-12-30 13:58:07 | 显示全部楼层
4K应该不错,我也下个看看
回复 支持 反对

使用道具 举报

0

主题

2

帖子

533

积分

4K家园VIP

Rank: 9Rank: 9Rank: 9

积分
533
发表于 2020-12-30 23:39:37 | 显示全部楼层
修睿,你黑了
回复 支持 反对

使用道具 举报

0

主题

2056

帖子

7406

积分

4K家园VIP

Rank: 9Rank: 9Rank: 9

积分
7406
发表于 2020-12-31 19:25:45 | 显示全部楼层
太好啦&萬分感謝版主的無私發佈分享%
回复 支持 反对

使用道具 举报

0

主题

1185

帖子

3389

积分

4K家园VIP

Rank: 9Rank: 9Rank: 9

积分
3389
发表于 2021-1-1 00:55:56 | 显示全部楼层
小白一个 顶一下
回复 支持 反对

使用道具 举报

1

主题

1152

帖子

3472

积分

4K家园VIP

Rank: 9Rank: 9Rank: 9

积分
3472
发表于 2021-1-1 09:21:24 | 显示全部楼层
感谢推荐,确实不错
回复 支持 反对

使用道具 举报

3

主题

1193

帖子

3601

积分

4K家园VIP

Rank: 9Rank: 9Rank: 9

积分
3601
发表于 2021-1-1 21:50:11 | 显示全部楼层
回复 支持 反对

使用道具 举报

您需要登录后才可以回帖 登录 | 立即注册

本版积分规则

精彩图文
Archiver|手机版|TAG|Sitemap|新帖|专题|联系我们:邮箱: 4kjia.com@gmail.com   

4k家园   ©2019