2020 GHOST9-Splash@釜山4k“W.ALL”复出展示 [2160P/MP4/462MB]

[复制链接]

2145

主题

2420

帖子

1万

积分

超级版主

Rank: 8Rank: 8

积分
19845
 楼主| 发表于 2021-1-1 10:00:00 | 显示全部楼层 |阅读模式

GHOST9-Splash(表演视频)@釜山4k“W.ALL”复出展示.mp4_20201231_195030.765.jpg.jpg GHOST9-Splash(表演视频)@釜山4k“W.ALL”复出展示.mp4_20201231_195038.845.jpg.jpg GHOST9-Splash(表演视频)@釜山4k“W.ALL”复出展示.mp4_20201231_195048.597.jpg.jpg GHOST9-Splash(表演视频)@釜山4k“W.ALL”复出展示.mp4_20201231_195113.789.jpg.jpg

General
Complete name                  : 2020 GHOST9-Splash(表演视频)@釜山4k“W.ALL”复出展示.mp4
Format                         : MPEG-4
Format profile                 : Base Media
Codec ID                       : isom (isom/iso2/avc1/mp41)
File size                      : 462 MiB
Duration                       : 3 min 29 s
Overall bit rate               : 18.5 Mb/s
Writing application            : Lavf58.12.100
exvr                           : EX1.8.2(C1.0.9)

Video
ID                             : 1
Format                         : AVC
Format/Info                    : Advanced Video Codec
Format profile                 : High@L5.1
Format settings                : CABAC / 4 Ref Frames
Format settings, CABAC         : Yes
Format settings, Reference fra : 4 frames
Codec ID                       : avc1
Codec ID/Info                  : Advanced Video Coding
Duration                       : 3 min 29 s
Bit rate                       : 18.3 Mb/s
Width                          : 3 840 pixels
Height                         : 2 160 pixels
Display aspect ratio           : 16:9
Frame rate mode                : Constant
Frame rate                     : 23.976 (23976/1000) FPS
Color space                    : YUV
Chroma subsampling             : 4:2:0
Bit depth                      : 8 bits
Scan type                      : Progressive
Bits/(Pixel*Frame)             : 0.092
Stream size                    : 457 MiB (99%)
Color range                    : Limited
Color primaries                : BT.709
Transfer characteristics       : BT.709
Matrix coefficients            : BT.709
Codec configuration box        : avcC

Audio
ID                             : 2
Format                         : AAC LC
Format/Info                    : Advanced Audio Codec Low Complexity
Codec ID                       : mp4a-40-2
Duration                       : 3 min 29 s
Bit rate mode                  : Constant
Bit rate                       : 192 kb/s
Channel(s)                     : 2 channels
Channel layout                 : L R
Sampling rate                  : 48.0 kHz
Frame rate                     : 46.875 FPS (1024 SPF)
Compression mode               : Lossy
Stream size                    : 4.80 MiB (1%)
Default                        : Yes
Alternate group                : 1



网盘下载失效不补:链接: https://pan.baidu.com/s/1dJb_XzpXYsTJx_ikIxJHLg 提取码:
****此区域为收费内容****    需支付 15 金币后可查看立即购买




.
回复

使用道具 举报

55

主题

1414

帖子

4058

积分

4K家园VIP

Rank: 9Rank: 9Rank: 9

积分
4058
发表于 2021-1-1 10:00:14 | 显示全部楼层
无论是不是沙发都得回复下
回复 支持 反对

使用道具 举报

0

主题

1

帖子

16

积分

新手上路

Rank: 1

积分
16
发表于 2021-1-2 02:20:49 | 显示全部楼层
感谢楼主分享!!!!
回复 支持 反对

使用道具 举报

2

主题

1203

帖子

3433

积分

4K家园VIP

Rank: 9Rank: 9Rank: 9

积分
3433
发表于 2021-1-6 21:08:55 | 显示全部楼层
都不知道说的啥
回复 支持 反对

使用道具 举报

46

主题

1342

帖子

3852

积分

4K家园VIP

Rank: 9Rank: 9Rank: 9

积分
3852
发表于 3 天前 | 显示全部楼层
我也来顶一下..
回复 支持 反对

使用道具 举报

您需要登录后才可以回帖 登录 | 立即注册

本版积分规则

精彩图文
Archiver|手机版|TAG|Sitemap|新帖|专题|联系我们:邮箱: 4kjia.com@gmail.com   

4k家园   ©2019