2020 GOT7-最后一件(现场视频)4k [2160P/MP4/403MB]

[复制链接]

2151

主题

2426

帖子

1万

积分

超级版主

Rank: 8Rank: 8

积分
19893
 楼主| 发表于 2021-1-6 10:00:01 | 显示全部楼层 |阅读模式
2020 GOT7-最后一件(现场视频)4k.mp4_20201231_201321.939.jpg 2020 GOT7-最后一件(现场视频)4k.mp4_20201231_201235.211.jpg 2020 GOT7-最后一件(现场视频)4k.mp4_20201231_201241.163.jpg 2020 GOT7-最后一件(现场视频)4k.mp4_20201231_201255.371.jpg

General
Complete name                  : E:\4KMV\2020 GOT7-最后一件(现场视频)4k.mp4
Format                         : MPEG-4
Format profile                 : Base Media
Codec ID                       : isom (isom/iso2/avc1/mp41)
File size                      : 404 MiB
Duration                       : 5 min 25 s
Overall bit rate               : 10.4 Mb/s
Writing application            : Lavf58.12.100
exvr                           : EX1.8.2(C1.0.9)

Video
ID                             : 1
Format                         : AVC
Format/Info                    : Advanced Video Codec
Format profile                 : High@L5.1
Format settings                : CABAC / 4 Ref Frames
Format settings, CABAC         : Yes
Format settings, Reference fra : 4 frames
Codec ID                       : avc1
Codec ID/Info                  : Advanced Video Coding
Duration                       : 5 min 25 s
Bit rate                       : 10.2 Mb/s
Width                          : 3 840 pixels
Height                         : 2 160 pixels
Display aspect ratio           : 16:9
Frame rate mode                : Constant
Frame rate                     : 24.000 FPS
Color space                    : YUV
Chroma subsampling             : 4:2:0
Bit depth                      : 8 bits
Scan type                      : Progressive
Bits/(Pixel*Frame)             : 0.051
Stream size                    : 396 MiB (98%)
Color range                    : Limited
Color primaries                : BT.709
Transfer characteristics       : BT.709
Matrix coefficients            : BT.709
Codec configuration box        : avcC

Audio
ID                             : 2
Format                         : AAC LC
Format/Info                    : Advanced Audio Codec Low Complexity
Codec ID                       : mp4a-40-2
Duration                       : 5 min 25 s
Bit rate mode                  : Constant
Bit rate                       : 192 kb/s
Channel(s)                     : 2 channels
Channel layout                 : L R
Sampling rate                  : 48.0 kHz
Frame rate                     : 46.875 FPS (1024 SPF)
Compression mode               : Lossy
Stream size                    : 7.45 MiB (2%)
Default                        : Yes
Alternate group                : 1



网盘下载失效不补:链接: https://pan.baidu.com/s/1RE1gmjO-jOdfzws3mVFBBQ 提取码:
****此区域为收费内容****    需支付 15 金币后可查看立即购买



.
回复

使用道具 举报

0

主题

1202

帖子

3440

积分

中级会员

Rank: 4

积分
3440
发表于 2021-1-6 10:00:07 | 显示全部楼层
顶顶更健康
回复 支持 反对

使用道具 举报

0

主题

1150

帖子

3462

积分

4K家园VIP

Rank: 9Rank: 9Rank: 9

积分
3462
发表于 2021-1-6 10:17:55 | 显示全部楼层
感谢分享
回复 支持 反对

使用道具 举报

56

主题

1290

帖子

3704

积分

4K家园VIP

Rank: 9Rank: 9Rank: 9

积分
3704
发表于 2021-1-6 16:43:20 | 显示全部楼层
没明白
回复 支持 反对

使用道具 举报

2

主题

1444

帖子

3950

积分

中级会员

Rank: 4

积分
3950
发表于 2021-1-11 21:30:52 | 显示全部楼层
支持,楼下的跟上哈~
回复 支持 反对

使用道具 举报

1

主题

995

帖子

3005

积分

4K家园VIP

Rank: 9Rank: 9Rank: 9

积分
3005
发表于 4 天前 | 显示全部楼层
报告!别开枪,我就是路过来看看的。。。
回复 支持 反对

使用道具 举报

您需要登录后才可以回帖 登录 | 立即注册

本版积分规则

精彩图文
Archiver|手机版|TAG|Sitemap|新帖|专题|联系我们:邮箱: 4kjia.com@gmail.com   

4k家园   ©2019