2020 LOONA - 颂歌 [2160P/MP4/601MB]

[复制链接]

2156

主题

2433

帖子

1万

积分

超级版主

Rank: 8Rank: 8

积分
19942
 楼主| 发表于 2021-1-2 10:00:00 | 显示全部楼层 |阅读模式
2020 LOONA - 颂歌.mp4_20201231_202142.529.jpg 2020 LOONA - 颂歌.mp4_20201231_202157.130.jpg 2020 LOONA - 颂歌.mp4_20201231_202209.746.jpg 2020 LOONA - 颂歌.mp4_20201231_202220.657.jpg 2020 LOONA - 颂歌.mp4_20201231_202225.521.jpg 2020 LOONA - 颂歌.mp4_20201231_202232.698.jpg 2020 LOONA - 颂歌.mp4_20201231_202241.297.jpg 2020 LOONA - 颂歌.mp4_20201231_202303.154.jpg

General
Complete name                  :2020 LOONA - 颂歌.mp4
Format                         : MPEG-4
Format profile                 : Base Media
Codec ID                       : iso5 (iso5/iso6/mp41)
File size                      : 601 MiB
Duration                       : 3 min 33 s
Overall bit rate               : 23.6 Mb/s
Writing application            : Lavf58.41.100

Video
ID                             : 1
Format                         : AVC
Format/Info                    : Advanced Video Codec
Format profile                 : High@L5.2
Format settings                : CABAC / 5 Ref Frames
Format settings, CABAC         : Yes
Format settings, Reference fra : 5 frames
Codec ID                       : avc1
Codec ID/Info                  : Advanced Video Coding
Duration                       : 3 min 33 s
Bit rate                       : 23.4 Mb/s
Width                          : 3 840 pixels
Height                         : 2 160 pixels
Display aspect ratio           : 16:9
Frame rate mode                : Constant
Frame rate                     : 23.976 (24000/1001) FPS
Color space                    : YUV
Chroma subsampling             : 4:2:0
Bit depth                      : 8 bits
Scan type                      : Progressive
Bits/(Pixel*Frame)             : 0.118
Stream size                    : 595 MiB (99%)
Writing library                : x264 core 157 r10 d4099dd
Encoding settings              : cabac=1 / ref=5 / deblock=1:0:0 / analyse=0x3:0x113 / me=hex / subme=8 / psy=1 / psy_rd=1.00:0.00 / mixed_ref=1 / me_range=16 / chroma_me=1 / trellis=2 / 8x8dct=1 / cqm=0 / deadzone=21,11 / fast_pskip=1 / chroma_qp_offset=-2 / threads=48 / lookahead_threads=8 / sliced_threads=0 / nr=0 / decimate=1 / interlaced=0 / bluray_compat=0 / stitchable=1 / constrained_intra=0 / bframes=3 / b_pyramid=2 / b_adapt=2 / b_bias=0 / direct=3 / weightb=1 / open_gop=0 / weightp=2 / keyint=infinite / keyint_min=23 / scenecut=40 / intra_refresh=0 / rc_lookahead=50 / rc=crf / mbtree=1 / crf=20.0 / qcomp=0.60 / qpmin=5 / qpmax=69 / qpstep=4 / vbv_maxrate=24200 / vbv_bufsize=66000 / crf_max=0.0 / nal_hrd=none / filler=0 / ip_ratio=1.40 / aq=1:1.00
Color range                    : Limited
Color primaries                : BT.709
Transfer characteristics       : BT.709
Matrix coefficients            : BT.709
Codec configuration box        : avcC

Audio
ID                             : 2
Format                         : AAC LC
Format/Info                    : Advanced Audio Codec Low Complexity
Codec ID                       : mp4a-40-2
Duration                       : 3 min 33 s
Bit rate                       : 253 kb/s
Channel(s)                     : 2 channels
Channel layout                 : L R
Sampling rate                  : 48.0 kHz
Frame rate                     : 46.875 FPS (1024 SPF)
Compression mode               : Lossy
Stream size                    : 6.45 MiB (1%)
Default                        : Yes
Alternate group                : 1


网盘下载失效不补:链接: https://pan.baidu.com/s/16vYqM6bWc7Iukl0JUOkGZg 提取码:
****此区域为收费内容****    需支付 30 金币后可查看立即购买



.


回复

使用道具 举报

2

主题

1177

帖子

3381

积分

中级会员

Rank: 4

积分
3381
发表于 2021-1-2 10:00:07 来自手机 | 显示全部楼层
4K版的应该更清晰吧
回复 支持 反对

使用道具 举报

0

主题

2073

帖子

7436

积分

4K家园VIP

Rank: 9Rank: 9Rank: 9

积分
7436
发表于 2021-1-2 12:42:00 | 显示全部楼层
太好啦&萬分感謝版主的無私發佈分享%
回复 支持 反对

使用道具 举报

62

主题

1355

帖子

3927

积分

4K家园VIP

Rank: 9Rank: 9Rank: 9

积分
3927
发表于 2021-1-3 17:53:25 来自手机 | 显示全部楼层
珍爱生命,果断回帖。
回复 支持 反对

使用道具 举报

0

主题

1071

帖子

3227

积分

4K家园VIP

Rank: 9Rank: 9Rank: 9

积分
3227
发表于 2021-1-5 14:42:12 | 显示全部楼层
没明白
回复 支持 反对

使用道具 举报

0

主题

1181

帖子

3557

积分

4K家园VIP

Rank: 9Rank: 9Rank: 9

积分
3557
发表于 7 天前 | 显示全部楼层
无论是不是沙发都得回复下
回复 支持 反对

使用道具 举报

2

主题

1177

帖子

3547

积分

4K家园VIP

Rank: 9Rank: 9Rank: 9

积分
3547
发表于 6 天前 | 显示全部楼层
支持支持再支持
回复 支持 反对

使用道具 举报

您需要登录后才可以回帖 登录 | 立即注册

本版积分规则

精彩图文
Archiver|手机版|TAG|Sitemap|新帖|专题|联系我们:邮箱: 4kjia.com@gmail.com   

4k家园   ©2019