2020 LOONA - 那又怎样 [2160P/MP4/689MB]

[复制链接]

2152

主题

2427

帖子

1万

积分

超级版主

Rank: 8Rank: 8

积分
19907
 楼主| 发表于 2021-1-7 10:00:00 | 显示全部楼层 |阅读模式

2020 LOONA - 那又怎样.mp4_20201231_203210.988.jpg 2020 LOONA - 那又怎样.mp4_20201231_203241.361.jpg 2020 LOONA - 那又怎样.mp4_20201231_203246.009.jpg 2020 LOONA - 那又怎样.mp4_20201231_203312.256.jpg 2020 LOONA - 那又怎样.mp4_20201231_203316.536.jpg 2020 LOONA - 那又怎样.mp4_20201231_203328.168.jpg

General
Complete name                  : E:\4KMV\2020 LOONA - 那又怎样.mp4
Format                         : MPEG-4
Format profile                 : Base Media
Codec ID                       : iso5 (iso5/iso6/mp41)
File size                      : 690 MiB
Duration                       : 4 min 33 s
Overall bit rate               : 21.2 Mb/s
Writing application            : Lavf58.41.100

Video
ID                             : 1
Format                         : AVC
Format/Info                    : Advanced Video Codec
Format profile                 : High@L5.2
Format settings                : CABAC / 5 Ref Frames
Format settings, CABAC         : Yes
Format settings, Reference fra : 5 frames
Codec ID                       : avc1
Codec ID/Info                  : Advanced Video Coding
Duration                       : 4 min 33 s
Bit rate                       : 20.9 Mb/s
Width                          : 3 840 pixels
Height                         : 2 160 pixels
Display aspect ratio           : 16:9
Frame rate mode                : Constant
Frame rate                     : 23.976 (24000/1001) FPS
Color space                    : YUV
Chroma subsampling             : 4:2:0
Bit depth                      : 8 bits
Scan type                      : Progressive
Bits/(Pixel*Frame)             : 0.105
Stream size                    : 681 MiB (99%)
Writing library                : x264 core 159 r10 1771b55
Encoding settings              : cabac=1 / ref=5 / deblock=1:0:0 / analyse=0x3:0x113 / me=hex / subme=8 / psy=1 / psy_rd=1.00:0.00 / mixed_ref=1 / me_range=16 / chroma_me=1 / trellis=2 / 8x8dct=1 / cqm=0 / deadzone=21,11 / fast_pskip=1 / chroma_qp_offset=-2 / threads=48 / lookahead_threads=8 / sliced_threads=0 / nr=0 / decimate=1 / interlaced=0 / bluray_compat=0 / stitchable=1 / constrained_intra=0 / bframes=3 / b_pyramid=2 / b_adapt=2 / b_bias=0 / direct=3 / weightb=1 / open_gop=0 / weightp=2 / keyint=infinite / keyint_min=23 / scenecut=40 / intra_refresh=0 / rc_lookahead=50 / rc=crf / mbtree=1 / crf=20.0 / qcomp=0.60 / qpmin=5 / qpmax=69 / qpstep=4 / vbv_maxrate=24200 / vbv_bufsize=66000 / crf_max=0.0 / nal_hrd=none / filler=0 / ip_ratio=1.40 / aq=1:1.00
Color range                    : Limited
Color primaries                : BT.709
Transfer characteristics       : BT.709
Matrix coefficients            : BT.709
Codec configuration box        : avcC

Audio
ID                             : 2
Format                         : AAC LC
Format/Info                    : Advanced Audio Codec Low Complexity
Codec ID                       : mp4a-40-2
Duration                       : 4 min 33 s
Bit rate                       : 253 kb/s
Channel(s)                     : 2 channels
Channel layout                 : L R
Sampling rate                  : 48.0 kHz
Frame rate                     : 46.875 FPS (1024 SPF)
Compression mode               : Lossy
Stream size                    : 8.25 MiB (1%)
Default                        : Yes
Alternate group                : 1



网盘下载失效不补:链接: https://pan.baidu.com/s/1jpKFi1r9Y1mTtrH4s0ftkw 提取码:
****此区域为收费内容****    需支付 15 金币后可查看立即购买



.
回复

使用道具 举报

3

主题

1036

帖子

3124

积分

4K家园VIP

Rank: 9Rank: 9Rank: 9

积分
3124
发表于 2021-1-7 10:00:05 | 显示全部楼层
顶起顶起顶起
回复 支持 反对

使用道具 举报

0

主题

1134

帖子

3422

积分

4K家园VIP

Rank: 9Rank: 9Rank: 9

积分
3422
发表于 2021-1-10 17:24:32 | 显示全部楼层
你们要是有4K资源记得分享,别小气
回复 支持 反对

使用道具 举报

56

主题

1364

帖子

3946

积分

4K家园VIP

Rank: 9Rank: 9Rank: 9

积分
3946
发表于 2021-1-11 02:48:43 来自手机 | 显示全部楼层
报告!别开枪,我就是路过来看看的。。。
回复 支持 反对

使用道具 举报

1

主题

1264

帖子

3624

积分

4K家园VIP

Rank: 9Rank: 9Rank: 9

积分
3624
发表于 2021-1-12 01:38:24 | 显示全部楼层
向楼主学习
回复 支持 反对

使用道具 举报

0

主题

211

帖子

761

积分

新手上路

Rank: 1

积分
761
发表于 2021-1-12 21:34:59 | 显示全部楼层
谢谢楼主分享
回复 支持 反对

使用道具 举报

0

主题

1178

帖子

3548

积分

4K家园VIP

Rank: 9Rank: 9Rank: 9

积分
3548
发表于 2021-1-13 00:31:28 | 显示全部楼层
楼猪辛苦了,支持一下分享好资源
回复 支持 反对

使用道具 举报

您需要登录后才可以回帖 登录 | 立即注册

本版积分规则

精彩图文
Archiver|手机版|TAG|Sitemap|新帖|专题|联系我们:邮箱: 4kjia.com@gmail.com   

4k家园   ©2019