2020 Kim Sung Kyu - 我很冷4k.mp4 [2160P/MP4/204MB]

[复制链接]

2145

主题

2420

帖子

1万

积分

超级版主

Rank: 8Rank: 8

积分
19845
 楼主| 发表于 2021-1-3 10:30:00 | 显示全部楼层 |阅读模式
2020 Kim Sung Kyu - 我很冷4k.mp4_20201231_205337.442.jpg 2020 Kim Sung Kyu - 我很冷4k.mp4_20201231_205345.526.jpg 2020 Kim Sung Kyu - 我很冷4k.mp4_20201231_205400.502.jpg 2020 Kim Sung Kyu - 我很冷4k.mp4_20201231_205416.358.jpg

General
Complete name                  : E:\4KMV\2020 Kim Sung Kyu - 我很冷4k.mp4
Format                         : MPEG-4
Format profile                 : Base Media
Codec ID                       : isom (isom/iso2/avc1/mp41)
File size                      : 204 MiB
Duration                       : 4 min 4 s
Overall bit rate               : 7 012 kb/s
Writing application            : Lavf58.12.100
exvr                           : EX1.8.2(C1.0.9)

Video
ID                             : 1
Format                         : AVC
Format/Info                    : Advanced Video Codec
Format profile                 : High@L5.1
Format settings                : CABAC / 4 Ref Frames
Format settings, CABAC         : Yes
Format settings, Reference fra : 4 frames
Codec ID                       : avc1
Codec ID/Info                  : Advanced Video Coding
Duration                       : 4 min 4 s
Bit rate                       : 6 817 kb/s
Width                          : 3 840 pixels
Height                         : 2 160 pixels
Display aspect ratio           : 16:9
Frame rate mode                : Constant
Frame rate                     : 23.976 (23976/1000) FPS
Color space                    : YUV
Chroma subsampling             : 4:2:0
Bit depth                      : 8 bits
Scan type                      : Progressive
Bits/(Pixel*Frame)             : 0.034
Stream size                    : 199 MiB (97%)
Color range                    : Limited
Color primaries                : BT.709
Transfer characteristics       : BT.709
Matrix coefficients            : BT.709
Codec configuration box        : avcC

Audio
ID                             : 2
Format                         : AAC LC
Format/Info                    : Advanced Audio Codec Low Complexity
Codec ID                       : mp4a-40-2
Duration                       : 4 min 4 s
Bit rate mode                  : Constant
Bit rate                       : 192 kb/s
Channel(s)                     : 2 channels
Channel layout                 : L R
Sampling rate                  : 48.0 kHz
Frame rate                     : 46.875 FPS (1024 SPF)
Compression mode               : Lossy
Stream size                    : 5.60 MiB (3%)
Default                        : Yes
Alternate group                : 1


网盘下载失效不补:链接: https://pan.baidu.com/s/1NNA83ppu0IXBfJKQm7yKzg 提取码:
****此区域为收费内容****    需支付 15 金币后可查看立即购买



.

相关帖子

回复

使用道具 举报

0

主题

1216

帖子

3492

积分

4K家园VIP

Rank: 9Rank: 9Rank: 9

积分
3492
发表于 2021-1-3 10:30:06 | 显示全部楼层
支持支持再支持
回复 支持 反对

使用道具 举报

58

主题

1372

帖子

3926

积分

4K家园VIP

Rank: 9Rank: 9Rank: 9

积分
3926
发表于 2021-1-5 07:21:52 | 显示全部楼层
我只是看看啊,不说话
回复 支持 反对

使用道具 举报

2

主题

1156

帖子

3490

积分

4K家园VIP

Rank: 9Rank: 9Rank: 9

积分
3490
发表于 6 天前 | 显示全部楼层
垃圾内容,路过为证。
回复 支持 反对

使用道具 举报

54

主题

1299

帖子

3741

积分

4K家园VIP

Rank: 9Rank: 9Rank: 9

积分
3741
发表于 5 天前 | 显示全部楼层
鼎力支持!!
回复 支持 反对

使用道具 举报

0

主题

1149

帖子

3459

积分

4K家园VIP

Rank: 9Rank: 9Rank: 9

积分
3459
发表于 3 天前 来自手机 | 显示全部楼层
广告位,,坐下看看
回复 支持 反对

使用道具 举报

您需要登录后才可以回帖 登录 | 立即注册

本版积分规则

精彩图文
Archiver|手机版|TAG|Sitemap|新帖|专题|联系我们:邮箱: 4kjia.com@gmail.com   

4k家园   ©2019