[4K电影] 《牧羊女大冒险 玩具4番外短片》4K高清版本下载/大小915MB

[复制链接]

244

主题

251

帖子

2708

积分

4K家园VIP

Rank: 9Rank: 9Rank: 9

积分
2708
 楼主| 发表于 2020-12-31 21:13:54 | 显示全部楼层 |阅读模式
本帖最后由 最爱4K哟 于 2021-1-15 09:42 编辑

MV5BNTc3OGIxZjEtMzhiZC00ZThkLWJkNjgtOWFmZTI5Nzc0Njk1XkEyXkFqcGdeQXVyOTg3NjI1MTg@._V1_.jpg

◎译  名 牧羊女大冒险/《玩具总动员4》番外短片/台灯生活
◎片  名 Lamp Life
◎年  代 2020
◎产  地 美国
◎类  别 动画 / 短片 / 奇幻
◎语  言 英语
◎上映日期 2020-01-31(美国)
◎IMDb评分 6.8/10 from 1885 users
◎IMDb链接 https://www.imdb.com/title/tt10167262/
◎豆瓣评分 8.1/10 from 2075 users
◎豆瓣链接 https://movie.douban.com/subject/34956867/
◎片  长 7分钟
◎导  演 瓦莱丽·拉普安特 Valerie LaPointe
◎编  剧 瓦莱丽·拉普安特 Valerie LaPointe
◎主  演 安妮·波茨 Annie Potts
      松村艾丽 Ally Maki
      吉姆·汉克斯 Jim Hanks
      艾米丽·戴维斯 Emily Davis
      克里斯蒂娜·亨德里克斯 Christina Hendricks



◎简  介

  皮克斯发布《玩具总动员》新衍生短片《Lamp Life》预告,可爱。聚焦牧羊女的故事:她为何在外流浪,并跟被迫“跑路”的胡迪重逢?

  1月31日Disney+上线。
Video
ID : 1
Format : HEVC
Format/Info : High Efficiency Video Coding
Format profile : Main 10@L5@High
HDR format : SMPTE ST 2086, HDR10 compatible
Codec ID : V_MPEGH/ISO/HEVC
Duration : 11 min 6 s
Bit rate : 10.7 Mb/s
Width : 3 840 pixels
Height : 2 160 pixels
Display aspect ratio : 16:9
Frame rate mode : Constant
Frame rate : 23.976 (24000/1001/189150) FPS
Color space : YUV
Chroma subsampling : 4:2:0
Bit depth : 10 bits
Bits/(Pixel*Frame) : 0.054
Stream size : 854 MiB (93%)
Default : Yes
Forced : No
Color range : Limited
Color primaries : BT.2020
Transfer characteristics : PQ
Matrix coefficients : BT.2020 non-constant
Mastering display color primaries : BT.2020
Mastering display luminance : min: 0.0001 cd/m2, max: 1000 cd/m2
Maximum Content Light Level : 954 cd/m2
Maximum Frame-Average Light Level : 32 cd/m2

Audio
ID : 2
Format : E-AC-3 JOC
Format/Info : Enhanced AC-3 with Joint Object Coding
Commercial name : Dolby Digital Plus with Dolby Atmos
Codec ID : A_EAC3
Duration : 11 min 7 s
Bit rate mode : Constant
Bit rate : 768 kb/s
Channel(s) : 6 channels
Channel layout : L R C LFE Ls Rs
Sampling rate : 48.0 kHz
Frame rate : 31.250 FPS (1536 SPF)
Compression mode : Lossy
Stream size : 61.1 MiB (7%)
Title : English
Language : English
Service kind : Complete Main
Default : No
Forced : No
Complexity index : 16
Number of dynamic objects : 15
Bed channel count : 1 channel
Bed channel configuration : LFE

Text #1
ID : 3
Format : UTF-8
Codec ID : S_TEXT/UTF8
Codec ID/Info : UTF-8 Plain Text
Duration : 6 min 35 s
Bit rate : 94 b/s
Count of elements : 147
Stream size : 4.58 KiB (0%)
Title : English
Language : English
Default : No
Forced : No

Text #2
ID : 4
Format : UTF-8
Codec ID : S_TEXT/UTF8
Codec ID/Info : UTF-8 Plain Text
Duration : 6 min 54 s
Bit rate : 61 b/s
Count of elements : 101
Stream size : 3.13 KiB (0%)
Title : European Spanish
Language : Spanish
Default : No
Forced : No

Text #3
ID : 5
Format : UTF-8
Codec ID : S_TEXT/UTF8
Codec ID/Info : UTF-8 Plain Text
Duration : 6 min 41 s
Bit rate : 65 b/s
Count of elements : 100
Stream size : 3.20 KiB (0%)
Title : Latin American Spanish
Language : Spanish
Default : No
Forced : No

Text #4
ID : 6
Format : UTF-8
Codec ID : S_TEXT/UTF8
Codec ID/Info : UTF-8 Plain Text
Duration : 6 min 54 s
Bit rate : 57 b/s
Count of elements : 103
Stream size : 2.89 KiB (0%)
Title : French
Language : French
Default : No
Forced : No

Text #5
ID : 7
Format : UTF-8
Codec ID : S_TEXT/UTF8
Codec ID/Info : UTF-8 Plain Text
Duration : 6 min 54 s
Bit rate : 66 b/s
Count of elements : 101
Stream size : 3.38 KiB (0%)
Title : Canadian French
Language : French
Default : No
Forced : No

Text #6
ID : 8
Format : UTF-8
Codec ID : S_TEXT/UTF8
Codec ID/Info : UTF-8 Plain Text
Duration : 6 min 41 s
Bit rate : 62 b/s
Count of elements : 102
Stream size : 3.09 KiB (0%)
Title : German
Language : German
Default : No
Forced : No

Text #7
ID : 9
Format : UTF-8
Codec ID : S_TEXT/UTF8
Codec ID/Info : UTF-8 Plain Text
Duration : 6 min 54 s
Bit rate : 63 b/s
Count of elements : 101
Stream size : 3.19 KiB (0%)
Title : Italian
Language : Italian
Default : No
Forced : No

Text #8
ID : 10
Format : UTF-8
Codec ID : S_TEXT/UTF8
Codec ID/Info : UTF-8 Plain Text
Duration : 6 min 54 s
Bit rate : 66 b/s
Count of elements : 101
Stream size : 3.36 KiB (0%)
Title : European Portuguese
Language : Portuguese
Default : No
Forced : No

Text #9
ID : 11
Format : UTF-8
Codec ID : S_TEXT/UTF8
Codec ID/Info : UTF-8 Plain Text
Duration : 6 min 54 s
Bit rate : 60 b/s
Count of elements : 101
Stream size : 3.08 KiB (0%)
Title : Brazilian Portuguese
Language : Portuguese
Default : No
Forced : No

Text #10
ID : 12
Format : UTF-8
Codec ID : S_TEXT/UTF8
Codec ID/Info : UTF-8 Plain Text
Duration : 6 min 54 s
Bit rate : 63 b/s
Count of elements : 103
Stream size : 3.21 KiB (0%)
Title : Polish
Language : Polish
Default : No
Forced : No

Text #11
ID : 13
Format : UTF-8
Codec ID : S_TEXT/UTF8
Codec ID/Info : UTF-8 Plain Text
Duration : 6 min 54 s
Bit rate : 60 b/s
Count of elements : 88
Stream size : 3.05 KiB (0%)
Title : Swedish
Language : Swedish
Default : No
Forced : No

Text #12
ID : 14
Format : UTF-8
Codec ID : S_TEXT/UTF8
Codec ID/Info : UTF-8 Plain Text
Duration : 6 min 54 s
Bit rate : 66 b/s
Count of elements : 86
Stream size : 3.34 KiB (0%)
Title : Danish
Language : Danish
Default : No
Forced : No

Text #13
ID : 15
Format : UTF-8
Codec ID : S_TEXT/UTF8
Codec ID/Info : UTF-8 Plain Text
Duration : 6 min 54 s
Bit rate : 58 b/s
Count of elements : 101
Stream size : 2.97 KiB (0%)
Title : Finnish
Language : Finnish
Default : No
Forced : No

Text #14
ID : 16
Format : UTF-8
Codec ID : S_TEXT/UTF8
Codec ID/Info : UTF-8 Plain Text
Duration : 6 min 41 s
Bit rate : 54 b/s
Count of elements : 94
Stream size : 2.68 KiB (0%)
Title : Dutch
Language : Dutch
Default : No
Forced : No

Text #15
ID : 17
Format : UTF-8
Codec ID : S_TEXT/UTF8
Codec ID/Info : UTF-8 Plain Text
Duration : 6 min 54 s
Bit rate : 56 b/s
Count of elements : 101
Stream size : 2.83 KiB (0%)
Title : Norwegian
Language : Norwegian
Default : No
Forced : No


62687787686882073470_thumb.png 57647866971233570449_thumb.png


游客,如果您要查看本帖隐藏内容请回复

游客,如果您要查看本帖隐藏内容请回复



.
回复

使用道具 举报

40

主题

1332

帖子

3798

积分

4K家园VIP

Rank: 9Rank: 9Rank: 9

积分
3798
发表于 2020-12-31 21:15:31 | 显示全部楼层
看帖要回,回帖才健康,在踩踩,楼主辛苦了!
回复 支持 反对

使用道具 举报

0

主题

2042

帖子

7363

积分

4K家园VIP

Rank: 9Rank: 9Rank: 9

积分
7363
发表于 2020-12-31 21:31:25 | 显示全部楼层
太好啦&萬分感謝版主的無私發佈分享%
回复 支持 反对

使用道具 举报

3

主题

1124

帖子

3394

积分

4K家园VIP

Rank: 9Rank: 9Rank: 9

积分
3394
发表于 2021-1-3 01:26:48 来自手机 | 显示全部楼层
我也顶起出售广告位
回复 支持 反对

使用道具 举报

3

主题

1235

帖子

3575

积分

中级会员

Rank: 4

积分
3575
发表于 2021-1-5 14:16:49 | 显示全部楼层
打酱油的人拉,回复下赚取积分
回复 支持 反对

使用道具 举报

55

主题

1414

帖子

4058

积分

4K家园VIP

Rank: 9Rank: 9Rank: 9

积分
4058
发表于 2021-1-5 18:03:44 | 显示全部楼层
感谢分享
回复 支持 反对

使用道具 举报

0

主题

2

帖子

9

积分

新手上路

Rank: 1

积分
9
发表于 2021-1-5 23:06:23 来自手机 | 显示全部楼层
不错
回复

使用道具 举报

1

主题

1160

帖子

3344

积分

4K家园VIP

Rank: 9Rank: 9Rank: 9

积分
3344
发表于 2021-1-6 10:55:39 | 显示全部楼层
楼猪辛苦了,支持一下分享好资源
回复 支持 反对

使用道具 举报

您需要登录后才可以回帖 登录 | 立即注册

本版积分规则

精彩图文
Archiver|手机版|TAG|Sitemap|新帖|专题|联系我们:邮箱: 4kjia.com@gmail.com   

4k家园   ©2019