[4K电影] 2020 纪录片《阿尔泰-森林与海洋》 4K高清下载/大小329MB

  [复制链接]

2142

主题

2417

帖子

1万

积分

超级版主

Rank: 8Rank: 8

积分
19809
 楼主| 发表于 2021-1-2 15:39:44 | 显示全部楼层 |阅读模式
本帖最后由 叽里呱啦 于 2021-1-2 15:57 编辑

АЛТАЙ. ЛЕС И МОРЕ.mkv_20210102_153149.834_meitu_2.jpg АЛТАЙ. ЛЕС И МОРЕ.mkv_20210102_153136.227_meitu_1.jpg АЛТАЙ. ЛЕС И МОРЕ.mkv_20210102_153200.131_meitu_3.jpg АЛТАЙ. ЛЕС И МОРЕ.mkv_20210102_153203.674_meitu_4.jpg АЛТАЙ. ЛЕС И МОРЕ.mkv_20210102_153216.627_meitu_6.jpg АЛТАЙ. ЛЕС И МОРЕ.mkv_20210102_153207.658_meitu_5.jpg

电影信息
名称:阿尔泰-森林与海洋
发行年份: 2020
类型: 种类
导演: Evgeniy Kozhin

General
Complete name                  : 阿尔泰 森林与海洋(2020)WEBRip 2160p
Format                         : Matroska
Format version                 : Version 4
File size                      : 329 MiB
Duration                       : 2 min 6 s
Overall bit rate               : 21.8 Mb/s
Encoded date                   : UTC 2020-12-29 18:34:55
Writing application            : mkvmerge v51.0.0 ('I Wish') 64-bit
Writing library                : libebml v1.4.0 + libmatroska v1.6.2

Video
ID                             : 1
Format                         : AVC
Format/Info                    : Advanced Video Codec
Format profile                 : High@L5.2
Format settings                : CABAC / 5 Ref Frames
Format settings, CABAC         : Yes
Format settings, Reference fra : 5 frames
Codec ID                       : V_MPEG4/ISO/AVC
Duration                       : 2 min 6 s
Bit rate                       : 21.5 Mb/s
Width                          : 3 840 pixels
Height                         : 1 600 pixels
Display aspect ratio           : 2.40:1
Frame rate mode                : Constant
Frame rate                     : 29.970 FPS
Color space                    : YUV
Chroma subsampling             : 4:2:0
Bit depth                      : 8 bits
Scan type                      : Progressive
Bits/(Pixel*Frame)             : 0.117
Stream size                    : 325 MiB (99%)
Writing library                : x264 core 161 r10 4121277
Encoding settings              : cabac=1 / ref=5 / deblock=1:0:0 / analyse=0x3:0x113 / me=hex / subme=8 / psy=1 / psy_rd=1.00:0.00 / mixed_ref=1 / me_range=16 / chroma_me=1 / trellis=2 / 8x8dct=1 / cqm=0 / deadzone=21,11 / fast_pskip=1 / chroma_qp_offset=-2 / threads=48 / lookahead_threads=8 / sliced_threads=0 / nr=0 / decimate=1 / interlaced=0 / bluray_compat=0 / stitchable=1 / constrained_intra=0 / bframes=3 / b_pyramid=2 / b_adapt=2 / b_bias=0 / direct=3 / weightb=1 / open_gop=0 / weightp=2 / keyint=infinite / keyint_min=29 / scenecut=40 / intra_refresh=0 / rc_lookahead=50 / rc=crf / mbtree=1 / crf=20.0 / qcomp=0.60 / qpmin=5 / qpmax=69 / qpstep=4 / vbv_maxrate=24200 / vbv_bufsize=66000 / crf_max=0.0 / nal_hrd=none / filler=0 / ip_ratio=1.40 / aq=1:1.00
Default                        : Yes
Forced                         : No
Color range                    : Limited
Color primaries                : BT.709
Transfer characteristics       : BT.709
Matrix coefficients            : BT.709

Audio
ID                             : 2
Format                         : AAC LC
Format/Info                    : Advanced Audio Codec Low Complexity
Codec ID                       : A_AAC-2
Duration                       : 2 min 6 s
Bit rate                       : 253 kb/s
Channel(s)                     : 2 channels
Channel layout                 : L R
Sampling rate                  : 48.0 kHz
Frame rate                     : 46.875 FPS (1024 SPF)
Compression mode               : Lossy
Stream size                    : 3.83 MiB (1%)
Default                        : Yes
Forced                         : No




游客,如果您要查看本帖隐藏内容请回复


.
回复

使用道具 举报

1

主题

998

帖子

3010

积分

4K家园VIP

Rank: 9Rank: 9Rank: 9

积分
3010
发表于 2021-1-2 15:39:49 | 显示全部楼层
围观 围观 沙发在哪里!!!
回复 支持 反对

使用道具 举报

0

主题

1048

帖子

3130

积分

4K家园VIP

Rank: 9Rank: 9Rank: 9

积分
3130
发表于 2021-1-2 16:32:57 | 显示全部楼层
前排顶,很好!
回复 支持 反对

使用道具 举报

1

主题

1183

帖子

3569

积分

4K家园VIP

Rank: 9Rank: 9Rank: 9

积分
3569
发表于 2021-1-2 17:28:27 | 显示全部楼层
4K家园资源最近貌似越来越多了
回复 支持 反对

使用道具 举报

0

主题

6

帖子

30

积分

新手上路

Rank: 1

积分
30
发表于 2021-1-2 17:46:53 | 显示全部楼层
谢谢楼主
回复

使用道具 举报

0

主题

1207

帖子

3483

积分

4K家园VIP

Rank: 9Rank: 9Rank: 9

积分
3483
发表于 2021-1-2 19:21:33 | 显示全部楼层
路过
回复 支持 反对

使用道具 举报

0

主题

2029

帖子

7329

积分

4K家园VIP

Rank: 9Rank: 9Rank: 9

积分
7329
发表于 2021-1-2 20:11:39 | 显示全部楼层
太好啦&萬分感謝版主的無私發佈分享%
回复 支持 反对

使用道具 举报

2

主题

1174

帖子

3372

积分

中级会员

Rank: 4

积分
3372
发表于 2021-1-2 22:17:22 | 显示全部楼层
LZ敢整点更有创意的不?兄弟们等着围观捏~
回复 支持 反对

使用道具 举报

0

主题

5

帖子

18

积分

新手上路

Rank: 1

积分
18
发表于 2021-1-6 15:40:01 | 显示全部楼层
谢谢咯!!
回复

使用道具 举报

0

主题

45

帖子

1411

积分

注册会员

Rank: 2

积分
1411
发表于 7 天前 | 显示全部楼层

太好啦&萬分感謝版主的無私發佈分享%
回复 支持 反对

使用道具 举报

您需要登录后才可以回帖 登录 | 立即注册

本版积分规则

精彩图文
Archiver|手机版|TAG|Sitemap|新帖|专题|联系我们:邮箱: 4kjia.com@gmail.com   

4k家园   ©2019