[人与动物] 2019 纪录片《锐变》 4K高清下载/大小405MB

[复制链接]

2175

主题

2453

帖子

2万

积分

超级版主

Rank: 8Rank: 8

积分
20094
 楼主| 发表于 2021-1-3 18:59:30 | 显示全部楼层 |阅读模式
本帖最后由 叽里呱啦 于 2021-1-3 19:29 编辑

锐变(2019)WE​​BRip 2160p.mkv_20210103_184758.435.jpg 锐变(2019)WE​​BRip 2160p.mkv_20210103_184816.036.jpg 锐变(2019)WE​​BRip 2160p.mkv_20210103_184831.444.jpg 锐变(2019)WE​​BRip 2160p.mkv_20210103_184859.219.jpg 锐变(2019)WE​​BRip 2160p.mkv_20210103_184932.915.jpg 锐变(2019)WE​​BRip 2160p.mkv_20210103_185000.507.jpg 锐变(2019)WE​​BRip 2160p.mkv_20210103_185022.179.jpg 锐变(2019)WE​​BRip 2160p.mkv_20210103_185035.851.jpg

有关电影的信息
原文: 锐变
发行年份: 2019
类型: 种类
导演:托马斯·布兰查德

关于电影:


        该视频显示了几种昆虫,花朵以及毛虫如何变成into,然后蝴蝶从from中浮现。 ...


General
Complete name                  : 锐变(2019)WE​​BRip 2160p.mkv
Format                         : Matroska
Format version                 : Version 4
File size                      : 406 MiB
Duration                       : 4 min 29 s
Overall bit rate               : 12.7 Mb/s
Encoded date                   : UTC 2020-12-29 16:02:05
Writing application            : mkvmerge v51.0.0 ('I Wish') 64-bit
Writing library                : libebml v1.4.0 + libmatroska v1.6.2

Video
ID                             : 1
Format                         : AVC
Format/Info                    : Advanced Video Codec
Format profile                 : High@L5.2
Format settings                : CABAC / 5 Ref Frames
Format settings, CABAC         : Yes
Format settings, Reference fra : 5 frames
Codec ID                       : V_MPEG4/ISO/AVC
Duration                       : 4 min 29 s
Bit rate                       : 12.5 Mb/s
Width                          : 3 840 pixels
Height                         : 2 160 pixels
Display aspect ratio           : 16:9
Frame rate mode                : Constant
Frame rate                     : 25.000 FPS
Color space                    : YUV
Chroma subsampling             : 4:2:0
Bit depth                      : 8 bits
Scan type                      : Progressive
Bits/(Pixel*Frame)             : 0.060
Stream size                    : 401 MiB (99%)
Writing library                : x264 core 157 r10 d4099dd
Encoding settings              : cabac=1 / ref=5 / deblock=1:0:0 / analyse=0x3:0x113 / me=hex / subme=8 / psy=1 / psy_rd=1.00:0.00 / mixed_ref=1 / me_range=16 / chroma_me=1 / trellis=2 / 8x8dct=1 / cqm=0 / deadzone=21,11 / fast_pskip=1 / chroma_qp_offset=-2 / threads=48 / lookahead_threads=8 / sliced_threads=0 / nr=0 / decimate=1 / interlaced=0 / bluray_compat=0 / stitchable=1 / constrained_intra=0 / bframes=3 / b_pyramid=2 / b_adapt=2 / b_bias=0 / direct=3 / weightb=1 / open_gop=0 / weightp=2 / keyint=infinite / keyint_min=25 / scenecut=40 / intra_refresh=0 / rc_lookahead=50 / rc=crf / mbtree=1 / crf=20.0 / qcomp=0.60 / qpmin=5 / qpmax=69 / qpstep=4 / vbv_maxrate=24200 / vbv_bufsize=66000 / crf_max=0.0 / nal_hrd=none / filler=0 / ip_ratio=1.40 / aq=1:1.00
Default                        : Yes
Forced                         : No
Color range                    : Limited
Color primaries                : BT.709
Transfer characteristics       : BT.709
Matrix coefficients            : BT.709

Audio
ID                             : 2
Format                         : AAC LC
Format/Info                    : Advanced Audio Codec Low Complexity
Codec ID                       : A_AAC-2
Duration                       : 4 min 29 s
Bit rate                       : 137 kb/s
Channel(s)                     : 2 channels
Channel layout                 : L R
Sampling rate                  : 48.0 kHz
Frame rate                     : 46.875 FPS (1024 SPF)
Compression mode               : Lossy
Stream size                    : 4.39 MiB (1%)
Default                        : Yes
Forced                         : No



网盘下载失效不补:链接: https://pan.baidu.com/s/1VX447CYyz3sNep8mPG1JTg 提取码:
****此区域为收费内容****    需支付 30 金币后可查看立即购买



.
回复

使用道具 举报

43

主题

1328

帖子

3790

积分

4K家园VIP

Rank: 9Rank: 9Rank: 9

积分
3790
发表于 2021-1-3 18:59:34 | 显示全部楼层
好像还可以
回复 支持 反对

使用道具 举报

1

主题

997

帖子

3011

积分

4K家园VIP

Rank: 9Rank: 9Rank: 9

积分
3011
发表于 2021-1-3 19:13:43 | 显示全部楼层
看帖要回,回帖才健康,在踩踩,楼主辛苦了!
回复 支持 反对

使用道具 举报

0

主题

9

帖子

258

积分

4K家园VIP

Rank: 9Rank: 9Rank: 9

积分
258
发表于 2021-1-3 20:51:29 | 显示全部楼层

看帖要回,回帖才健康,在踩踩,楼主辛苦了!
回复 支持 反对

使用道具 举报

2

主题

1447

帖子

3959

积分

中级会员

Rank: 4

积分
3959
发表于 2021-1-3 22:54:54 | 显示全部楼层
呵呵,低调,低调!
回复 支持 反对

使用道具 举报

49

主题

1326

帖子

3838

积分

4K家园VIP

Rank: 9Rank: 9Rank: 9

积分
3838
发表于 2021-1-4 11:16:04 | 显示全部楼层
秀起来~
回复 支持 反对

使用道具 举报

2

主题

1171

帖子

3367

积分

4K家园VIP

Rank: 9Rank: 9Rank: 9

积分
3367
发表于 2021-1-4 11:34:42 | 显示全部楼层
路过
回复 支持 反对

使用道具 举报

您需要登录后才可以回帖 登录 | 立即注册

本版积分规则

精彩图文
Archiver|手机版|TAG|Sitemap|新帖|专题|联系我们:邮箱: 4kjia.com@gmail.com   

4k家园   ©2019