[4K记录视频] 2019 纪录片《马达加斯加的灵魂》 4K高清下载/大小560MB

[复制链接]

2174

主题

2452

帖子

2万

积分

超级版主

Rank: 8Rank: 8

积分
20089
 楼主| 发表于 2021-1-6 11:28:06 | 显示全部楼层 |阅读模式

马达加斯加(2018)WEBRip 2160p.mkv_20210103_190820.491.jpg 马达加斯加(2018)WEBRip 2160p.mkv_20210103_190828.939.jpg 马达加斯加(2018)WEBRip 2160p.mkv_20210103_190839.548.jpg 马达加斯加(2018)WEBRip 2160p.mkv_20210103_190847.707.jpg 马达加斯加(2018)WEBRip 2160p.mkv_20210103_190932.117.jpg 马达加斯加(2018)WEBRip 2160p.mkv_20210103_190911.532.jpg

有关信息
标题:马达加斯加
发行年份: 2018
导演:莫滕·鲁斯塔德(Morten Rustad)

关于电影:

        该视频旨在生动地描绘马达加斯加的灵魂,马达加斯加是非洲沿岸一个神秘的大岛,这个地方不可能不被爱上


General
Complete name                  : 马达加斯加(2018)WEBRip 2160p.mkv
Format                         : Matroska
Format version                 : Version 4
File size                      : 561 MiB
Duration                       : 3 min 45 s
Overall bit rate               : 20.8 Mb/s
Encoded date                   : UTC 2020-12-22 18:08:33
Writing application            : mkvmerge v51.0.0 ('I Wish') 64-bit
Writing library                : libebml v1.4.0 + libmatroska v1.6.2

Video
ID                             : 1
Format                         : AVC
Format/Info                    : Advanced Video Codec
Format profile                 : High@L5.2
Format settings                : CABAC / 5 Ref Frames
Format settings, CABAC         : Yes
Format settings, Reference fra : 5 frames
Codec ID                       : V_MPEG4/ISO/AVC
Duration                       : 3 min 45 s
Bit rate                       : 20.6 Mb/s
Width                          : 3 840 pixels
Height                         : 2 160 pixels
Display aspect ratio           : 16:9
Frame rate mode                : Constant
Frame rate                     : 23.976 (24000/1001) FPS
Color space                    : YUV
Chroma subsampling             : 4:2:0
Bit depth                      : 8 bits
Scan type                      : Progressive
Bits/(Pixel*Frame)             : 0.103
Stream size                    : 554 MiB (99%)
Writing library                : x264 core 155 r10 7d0ff22
Encoding settings              : cabac=1 / ref=5 / deblock=1:0:0 / analyse=0x3:0x113 / me=hex / subme=8 / psy=1 / psy_rd=1.00:0.00 / mixed_ref=1 / me_range=16 / chroma_me=1 / trellis=2 / 8x8dct=1 / cqm=0 / deadzone=21,11 / fast_pskip=1 / chroma_qp_offset=-2 / threads=67 / lookahead_threads=11 / sliced_threads=0 / nr=0 / decimate=1 / interlaced=0 / bluray_compat=0 / stitchable=1 / constrained_intra=0 / bframes=3 / b_pyramid=2 / b_adapt=2 / b_bias=0 / direct=3 / weightb=1 / open_gop=0 / weightp=2 / keyint=infinite / keyint_min=23 / scenecut=40 / intra_refresh=0 / rc_lookahead=50 / rc=crf / mbtree=1 / crf=20.0 / qcomp=0.60 / qpmin=5 / qpmax=69 / qpstep=4 / vbv_maxrate=24200 / vbv_bufsize=66000 / crf_max=0.0 / nal_hrd=none / filler=0 / ip_ratio=1.40 / aq=1:1.00
Default                        : Yes
Forced                         : No
Color range                    : Limited
Color primaries                : BT.709
Transfer characteristics       : BT.709
Matrix coefficients            : BT.709

Audio
ID                             : 2
Format                         : AAC LC
Format/Info                    : Advanced Audio Codec Low Complexity
Codec ID                       : A_AAC-2
Duration                       : 3 min 45 s
Bit rate                       : 256 kb/s
Channel(s)                     : 2 channels
Channel layout                 : L R
Sampling rate                  : 48.0 kHz
Frame rate                     : 46.875 FPS (1024 SPF)
Compression mode               : Lossy
Stream size                    : 6.90 MiB (1%)
Default                        : Yes
Forced                         : No



网盘下载失效不补:链接: https://pan.baidu.com/s/1Z-pTUx1anXYMN41uqVyBvQ 提取码:
****此区域为收费内容****    需支付 15 金币后可查看立即购买



.
回复

使用道具 举报

194

主题

1396

帖子

3788

积分

4K家园VIP

Rank: 9Rank: 9Rank: 9

积分
3788
发表于 2021-1-6 11:28:17 | 显示全部楼层
没人回帖。。。我来个吧
回复 支持 反对

使用道具 举报

1

主题

1286

帖子

3710

积分

4K家园VIP

Rank: 9Rank: 9Rank: 9

积分
3710
发表于 2021-1-7 11:18:54 | 显示全部楼层
传说中的沙发???哇卡卡
回复 支持 反对

使用道具 举报

0

主题

241

帖子

856

积分

新手上路

Rank: 1

积分
856
发表于 2021-1-7 13:45:46 | 显示全部楼层
感谢楼主分享
回复 支持 反对

使用道具 举报

0

主题

2168

帖子

7611

积分

4K家园VIP

Rank: 9Rank: 9Rank: 9

积分
7611
发表于 2021-1-8 11:20:22 | 显示全部楼层
太好啦&萬分感謝版主的無私發佈分享%
回复 支持 反对

使用道具 举报

2

主题

1163

帖子

3511

积分

4K家园VIP

Rank: 9Rank: 9Rank: 9

积分
3511
发表于 2021-1-8 14:50:45 | 显示全部楼层
无论是不是沙发都得回复下
回复 支持 反对

使用道具 举报

3

主题

1518

帖子

4186

积分

4K家园VIP

Rank: 9Rank: 9Rank: 9

积分
4186
发表于 2021-1-11 05:06:55 | 显示全部楼层
额.....这个可以有
回复 支持 反对

使用道具 举报

54

主题

1304

帖子

3756

积分

4K家园VIP

Rank: 9Rank: 9Rank: 9

积分
3756
发表于 2021-1-11 08:23:51 | 显示全部楼层
LZ帖子不给力,勉强给回复下吧
回复 支持 反对

使用道具 举报

您需要登录后才可以回帖 登录 | 立即注册

本版积分规则

精彩图文
Archiver|手机版|TAG|Sitemap|新帖|专题|联系我们:邮箱: 4kjia.com@gmail.com   

4k家园   ©2019