2020 Solar - 吐出来(收藏版) [UHD 2160p] [2160P/MKV/1.86GB]

[复制链接]

2175

主题

2453

帖子

2万

积分

超级版主

Rank: 8Rank: 8

积分
20094
 楼主| 发表于 2021-1-5 20:26:34 | 显示全部楼层 |阅读模式
本帖最后由 叽里呱啦 于 2021-1-5 20:31 编辑

Solar - Spit it out [UHD 2160p].mkv_20210105_200938.731_meitu_1.jpg Solar - Spit it out [UHD 2160p].mkv_20210105_201009.707_meitu_2.jpg Solar - Spit it out [UHD 2160p].mkv_20210105_201204.634_meitu_8.jpg Solar - Spit it out [UHD 2160p].mkv_20210105_201025.683_meitu_3.jpg Solar - Spit it out [UHD 2160p].mkv_20210105_201046.794_meitu_4.jpg Solar - Spit it out [UHD 2160p].mkv_20210105_201052.458_meitu_5.jpg Solar - Spit it out [UHD 2160p].mkv_20210105_201138.362_meitu_7.jpg

General
Complete name                  : 2020 Solar - 吐出来(收藏版) [UHD 2160p].mkv
Format                         : Matroska
Format version                 : Version 4
File size                      : 1.87 GiB
Duration                       : 3 min 54 s
Overall bit rate               : 68.6 Mb/s
Encoded date                   : UTC 2020-05-02 18:57:06
Writing application            : mkvmerge v45.0.0 ('Heaven in Pennies') 64-bit
Writing library                : libebml v1.3.10 + libmatroska v1.5.2 / Lavf58.42.100

Video
ID                             : 1
Format                         : HEVC
Format/Info                    : High Efficiency Video Coding
Format profile                 : Main@L5@Main
Codec ID                       : V_MPEGH/ISO/HEVC
Duration                       : 3 min 54 s
Bit rate                       : 68.3 Mb/s
Width                          : 3 840 pixels
Height                         : 2 160 pixels
Display aspect ratio           : 16:9
Frame rate mode                : Constant
Frame rate                     : 23.976 (23976/1000) FPS
Color space                    : YUV
Chroma subsampling             : 4:2:0
Bit depth                      : 8 bits
Bits/(Pixel*Frame)             : 0.343
Stream size                    : 1.86 GiB (100%)
Writing library                : x265 3.3+12-00b686782ad0:[Windows][GCC 9.3.1][64 bit] 8bit+10bit
Encoding settings              : cpuid=1111039 / frame-threads=4 / numa-pools=24 / wpp / no-pmode / no-pme / no-psnr / no-ssim / log-level=2 / input-csp=1 / input-res=3840x2160 / interlace=0 / total-frames=0 / level-idc=0 / high-tier=1 / uhd-bd=0 / ref=4 / no-allow-non-conformance / no-repeat-headers / annexb / no-aud / no-hrd / info / hash=0 / no-temporal-layers / open-gop / min-keyint=23 / keyint=250 / gop-lookahead=0 / bframes=4 / b-adapt=2 / b-pyramid / bframe-bias=0 / rc-lookahead=25 / lookahead-slices=4 / scenecut=40 / hist-scenecut=0 / radl=0 / no-splice / no-intra-refresh / ctu=64 / min-cu-size=8 / rect / no-amp / max-tu-size=32 / tu-inter-depth=1 / tu-intra-depth=1 / limit-tu=0 / rdoq-level=2 / dynamic-rd=0.00 / no-ssim-rd / signhide / no-tskip / nr-intra=0 / nr-inter=0 / no-constrained-intra / strong-intra-smoothing / max-merge=3 / limit-refs=3 / limit-modes / me=3 / subme=3 / merange=57 / temporal-mvp / no-frame-dup / no-hme / weightp / no-weightb / no-analyze-src-pics / deblock=0:0 / sao / no-sao-non-deblock / rd=4 / selective-sao=4 / no-early-skip / rskip / no-fast-intra / no-tskip-fast / no-cu-lossless / no-b-intra / no-splitrd-skip / rdpenalty=0 / psy-rd=2.00 / psy-rdoq=1.00 / no-rd-refine / no-lossless / cbqpoffs=0 / crqpoffs=0 / rc=crf / crf=19.0 / qcomp=0.60 / qpstep=4 / stats-write=0 / stats-read=0 / ipratio=1.40 / pbratio=1.30 / aq-mode=2 / aq-strength=1.00 / cutree / zone-count=0 / no-strict-cbr / qg-size=32 / no-rc-grain / qpmax=69 / qpmin=0 / no-const-vbv / sar=0 / overscan=0 / videoformat=5 / range=0 / colorprim=2 / transfer=2 / colormatrix=2 / chromaloc=0 / display-window=0 / cll=0,0 / min-luma=0 / max-luma=255 / log2-max-poc-lsb=8 / vui-timing-info / vui-hrd-info / slices=1 / no-opt-qp-pps / no-opt-ref-list-length-pps / no-multi-pass-opt-rps / scenecut-bias=0.05 / hist-threshold=0.01 / no-opt-cu-delta-qp / no-aq-motion / no-hdr10 / no-hdr10-opt / no-dhdr10-opt / no-idr-recovery-sei / analysis-reuse-level=0 / analysis-save-reuse-level=0 / analysis-load-reuse-level=0 / scale-factor=0 / refine-intra=0 / refine-inter=0 / refine-mv=1 / refine-ctu-distortion=0 / no-limit-sao / ctu-info=0 / no-lowpass-dct / refine-analysis-type=0 / copy-pic=1 / max-ausize-factor=1.0 / no-dynamic-refine / no-single-sei / no-hevc-aq / no-svt / no-field / qp-adaptation-range=1.00 / no-scenecut-aware-qpconformance-window-offsets / right=0 / bottom=0 / decoder-max-rate=0
Default                        : Yes
Forced                         : No
Color range                    : Limited

Audio
ID                             : 2
Format                         : AAC LC
Format/Info                    : Advanced Audio Codec Low Complexity
Codec ID                       : A_AAC-2
Duration                       : 3 min 54 s
Bit rate                       : 317 kb/s
Channel(s)                     : 2 channels
Channel layout                 : L R
Sampling rate                  : 48.0 kHz
Frame rate                     : 46.875 FPS (1024 SPF)
Compression mode               : Lossy
Stream size                    : 8.86 MiB (0%)
Language                       : Korean
Default                        : Yes
Forced                         : No




网盘下载失效不补:下载中...0-1KB/s蜗牛式下载,请耐心等待



.
回复

使用道具 举报

45

主题

1332

帖子

3838

积分

4K家园VIP

Rank: 9Rank: 9Rank: 9

积分
3838
发表于 2021-1-5 20:26:39 | 显示全部楼层
大人,此事必有蹊跷!
回复 支持 反对

使用道具 举报

1

主题

1007

帖子

3037

积分

4K家园VIP

Rank: 9Rank: 9Rank: 9

积分
3037
发表于 2021-1-7 05:12:26 | 显示全部楼层
4K家园资源最近貌似越来越多了
回复 支持 反对

使用道具 举报

2

主题

1202

帖子

3624

积分

4K家园VIP

Rank: 9Rank: 9Rank: 9

积分
3624
发表于 2021-1-7 21:38:19 | 显示全部楼层
我也来顶一下..
回复 支持 反对

使用道具 举报

0

主题

4

帖子

48

积分

4K家园VIP

Rank: 9Rank: 9Rank: 9

积分
48
发表于 2021-1-8 14:39:55 | 显示全部楼层
地址在哪?
回复

使用道具 举报

47

主题

1316

帖子

3774

积分

4K家园VIP

Rank: 9Rank: 9Rank: 9

积分
3774
发表于 2021-1-9 16:25:32 | 显示全部楼层
LZ帖子不给力,勉强给回复下吧
回复 支持 反对

使用道具 举报

52

主题

1338

帖子

3880

积分

4K家园VIP

Rank: 9Rank: 9Rank: 9

积分
3880
发表于 2021-1-11 19:07:57 来自手机 | 显示全部楼层
我是个凑数的。。。
回复 支持 反对

使用道具 举报

0

主题

241

帖子

856

积分

新手上路

Rank: 1

积分
856
发表于 2021-1-12 21:34:30 | 显示全部楼层
谢谢楼主分享
回复 支持 反对

使用道具 举报

2

主题

24

帖子

364

积分

4K家园VIP

Rank: 9Rank: 9Rank: 9

积分
364
发表于 2021-1-15 18:54:10 | 显示全部楼层
只有我一个人看不到吗?
回复 支持 反对

使用道具 举报

您需要登录后才可以回帖 登录 | 立即注册

本版积分规则

精彩图文
Archiver|手机版|TAG|Sitemap|新帖|专题|联系我们:邮箱: 4kjia.com@gmail.com   

4k家园   ©2019