2020 Baek A Yeon - 我需要你4k [2160P/MP4/102MB]

[复制链接]

2142

主题

2417

帖子

1万

积分

超级版主

Rank: 8Rank: 8

积分
19812
 楼主| 发表于 2021-1-7 20:12:37 | 显示全部楼层 |阅读模式
2020 Baek A Yeon - 我需要你4k.mp4_20210107_200347.571.jpg 2020 Baek A Yeon - 我需要你4k.mp4_20210107_200354.419.jpg 2020 Baek A Yeon - 我需要你4k.mp4_20210107_200400.971.jpg 2020 Baek A Yeon - 我需要你4k.mp4_20210107_200413.715.jpg

General
Complete name                  :4KMV\2020 Baek A Yeon - 我需要你4k.mp4
Format                         : MPEG-4
Format profile                 : Base Media
Codec ID                       : isom (isom/iso2/avc1/mp41)
File size                      : 102 MiB
Duration                       : 3 min 26 s
Overall bit rate               : 4 148 kb/s
Writing application            : Lavf58.12.100
exvr                           : EX1.8.2(C1.0.9)

Video
ID                             : 1
Format                         : AVC
Format/Info                    : Advanced Video Codec
Format profile                 : High@L5.1
Format settings                : CABAC / 4 Ref Frames
Format settings, CABAC         : Yes
Format settings, Reference fra : 4 frames
Codec ID                       : avc1
Codec ID/Info                  : Advanced Video Coding
Duration                       : 3 min 26 s
Bit rate                       : 3 953 kb/s
Width                          : 3 840 pixels
Height                         : 2 160 pixels
Display aspect ratio           : 16:9
Frame rate mode                : Constant
Frame rate                     : 23.976 (23976/1000) FPS
Color space                    : YUV
Chroma subsampling             : 4:2:0
Bit depth                      : 8 bits
Scan type                      : Progressive
Bits/(Pixel*Frame)             : 0.020
Stream size                    : 97.3 MiB (95%)
Color range                    : Limited
Color primaries                : BT.709
Transfer characteristics       : BT.709
Matrix coefficients            : BT.709
Codec configuration box        : avcC

Audio
ID                             : 2
Format                         : AAC LC
Format/Info                    : Advanced Audio Codec Low Complexity
Codec ID                       : mp4a-40-2
Duration                       : 3 min 26 s
Duration_LastFrame             : -1 ms
Bit rate mode                  : Constant
Bit rate                       : 192 kb/s
Channel(s)                     : 2 channels
Channel layout                 : L R
Sampling rate                  : 48.0 kHz
Frame rate                     : 46.875 FPS (1024 SPF)
Compression mode               : Lossy
Stream size                    : 4.73 MiB (5%)
Default                        : Yes
Alternate group                : 1




网盘下载失效不补:链接: https://pan.baidu.com/s/1E8JFNoNm7CN3RNBJ1MxjEg 提取码:
****此区域为收费内容****    需支付 15 金币后可查看立即购买



.
回复

使用道具 举报

51

主题

1354

帖子

3880

积分

4K家园VIP

Rank: 9Rank: 9Rank: 9

积分
3880
发表于 2021-1-7 20:12:42 | 显示全部楼层
正需要
回复 支持 反对

使用道具 举报

2

主题

1174

帖子

3538

积分

4K家园VIP

Rank: 9Rank: 9Rank: 9

积分
3538
发表于 2021-1-8 03:32:17 | 显示全部楼层
4K电影下个试试
回复 支持 反对

使用道具 举报

39

主题

1257

帖子

3531

积分

4K家园VIP

Rank: 9Rank: 9Rank: 9

积分
3531
发表于 2021-1-8 05:03:44 | 显示全部楼层
鼎力支持!!
回复 支持 反对

使用道具 举报

2

主题

1481

帖子

4029

积分

4K家园VIP

Rank: 9Rank: 9Rank: 9

积分
4029
发表于 2021-1-8 12:47:07 | 显示全部楼层
感谢楼主发帖,前排顶起
回复 支持 反对

使用道具 举报

1

主题

999

帖子

3013

积分

4K家园VIP

Rank: 9Rank: 9Rank: 9

积分
3013
发表于 7 天前 | 显示全部楼层
顶起出售广告位
回复 支持 反对

使用道具 举报

您需要登录后才可以回帖 登录 | 立即注册

本版积分规则

精彩图文
Archiver|手机版|TAG|Sitemap|新帖|专题|联系我们:邮箱: 4kjia.com@gmail.com   

4k家园   ©2019