2020 ENHYPEN - Given-Taken (编舞视频)4k [2160P/MP4/274MB]

[复制链接]

2145

主题

2420

帖子

1万

积分

超级版主

Rank: 8Rank: 8

积分
19845
 楼主| 发表于 2021-1-8 10:30:00 | 显示全部楼层 |阅读模式
2020 ENHYPEN - Given-Taken (编舞视频)4k.mp4_20210107_201526.499.jpg 2020 ENHYPEN - Given-Taken (编舞视频)4k.mp4_20210107_201602.115.jpg 2020 ENHYPEN - Given-Taken (编舞视频)4k.mp4_20210107_201635.171.jpg 2020 ENHYPEN - Given-Taken (编舞视频)4k.mp4_20210107_201734.051.jpg


General
Complete name                  : E:\4KMV\2020 ENHYPEN - Given-Taken (编舞视频)4k.mp4
Format                         : MPEG-4
Format profile                 : Base Media
Codec ID                       : isom (isom/iso2/avc1/mp41)
File size                      : 274 MiB
Duration                       : 3 min 22 s
Overall bit rate               : 11.4 Mb/s
Writing application            : Lavf58.12.100
exvr                           : EX1.8.2(C1.0.9)

Video
ID                             : 1
Format                         : AVC
Format/Info                    : Advanced Video Codec
Format profile                 : High@L5.1
Format settings                : CABAC / 4 Ref Frames
Format settings, CABAC         : Yes
Format settings, Reference fra : 4 frames
Codec ID                       : avc1
Codec ID/Info                  : Advanced Video Coding
Duration                       : 3 min 21 s
Bit rate                       : 11.2 Mb/s
Width                          : 3 840 pixels
Height                         : 2 160 pixels
Display aspect ratio           : 16:9
Frame rate mode                : Constant
Frame rate                     : 29.970 (29970/1000) FPS
Color space                    : YUV
Chroma subsampling             : 4:2:0
Bit depth                      : 8 bits
Scan type                      : Progressive
Bits/(Pixel*Frame)             : 0.045
Stream size                    : 269 MiB (98%)
Color range                    : Limited
Color primaries                : BT.709
Transfer characteristics       : BT.709
Matrix coefficients            : BT.709
Codec configuration box        : avcC

Audio
ID                             : 2
Format                         : AAC LC
Format/Info                    : Advanced Audio Codec Low Complexity
Codec ID                       : mp4a-40-2
Duration                       : 3 min 22 s
Bit rate mode                  : Constant
Bit rate                       : 192 kb/s
Channel(s)                     : 2 channels
Channel layout                 : L R
Sampling rate                  : 48.0 kHz
Frame rate                     : 46.875 FPS (1024 SPF)
Compression mode               : Lossy
Stream size                    : 4.62 MiB (2%)
Default                        : Yes
Alternate group                : 1



网盘下载失效不补:链接: https://pan.baidu.com/s/1c0IAO0BHQwETfGAIqTHe7A 提取码:
****此区域为收费内容****    需支付 15 金币后可查看立即购买


.
回复

使用道具 举报

1

主题

1124

帖子

3386

积分

4K家园VIP

Rank: 9Rank: 9Rank: 9

积分
3386
发表于 2021-1-8 10:30:08 | 显示全部楼层
LZ帖子不给力,勉强给回复下吧
回复 支持 反对

使用道具 举报

0

主题

1193

帖子

3429

积分

4K家园VIP

Rank: 9Rank: 9Rank: 9

积分
3429
发表于 2021-1-9 09:16:41 来自手机 | 显示全部楼层
1v1飘过
回复 支持 反对

使用道具 举报

0

主题

211

帖子

761

积分

新手上路

Rank: 1

积分
761
发表于 7 天前 | 显示全部楼层
谢谢楼主分享
回复 支持 反对

使用道具 举报

1

主题

1126

帖子

3394

积分

4K家园VIP

Rank: 9Rank: 9Rank: 9

积分
3394
发表于 5 天前 来自手机 | 显示全部楼层
介是神马?!!
回复 支持 反对

使用道具 举报

您需要登录后才可以回帖 登录 | 立即注册

本版积分规则

精彩图文
Archiver|手机版|TAG|Sitemap|新帖|专题|联系我们:邮箱: 4kjia.com@gmail.com   

4k家园   ©2019