2020 Moon Byul - 3天前的奇迹4k [2160P/MP4/199MB]

[复制链接]

2151

主题

2426

帖子

1万

积分

超级版主

Rank: 8Rank: 8

积分
19893
 楼主| 发表于 2021-1-12 11:30:00 | 显示全部楼层 |阅读模式
2020 Moon Byul - 3天前的奇迹4k.mp4_20210107_203144.923.jpg 2020 Moon Byul - 3天前的奇迹4k.mp4_20210107_203150.459.jpg 2020 Moon Byul - 3天前的奇迹4k.mp4_20210107_203210.371.jpg 2020 Moon Byul - 3天前的奇迹4k.mp4_20210107_203223.891.jpg

General
Complete name                  : E:\4KMV\2020 Moon Byul - 3天前的奇迹4k.mp4
Format                         : MPEG-4
Format profile                 : Base Media
Codec ID                       : isom (isom/iso2/avc1/mp41)
File size                      : 199 MiB
Duration                       : 4 min 3 s
Overall bit rate               : 6 873 kb/s
Writing application            : Lavf58.12.100
exvr                           : EX1.8.2(C1.0.9)

Video
ID                             : 1
Format                         : AVC
Format/Info                    : Advanced Video Codec
Format profile                 : High@L5.1
Format settings                : CABAC / 4 Ref Frames
Format settings, CABAC         : Yes
Format settings, Reference fra : 4 frames
Codec ID                       : avc1
Codec ID/Info                  : Advanced Video Coding
Duration                       : 4 min 3 s
Bit rate                       : 6 678 kb/s
Width                          : 3 840 pixels
Height                         : 2 160 pixels
Display aspect ratio           : 16:9
Frame rate mode                : Constant
Frame rate                     : 23.976 (23976/1000) FPS
Color space                    : YUV
Chroma subsampling             : 4:2:0
Bit depth                      : 8 bits
Scan type                      : Progressive
Bits/(Pixel*Frame)             : 0.034
Stream size                    : 194 MiB (97%)
Color range                    : Limited
Color primaries                : BT.709
Transfer characteristics       : BT.709
Matrix coefficients            : BT.709
Codec configuration box        : avcC

Audio
ID                             : 2
Format                         : AAC LC
Format/Info                    : Advanced Audio Codec Low Complexity
Codec ID                       : mp4a-40-2
Duration                       : 4 min 3 s
Bit rate mode                  : Constant
Bit rate                       : 192 kb/s
Channel(s)                     : 2 channels
Channel layout                 : L R
Sampling rate                  : 48.0 kHz
Frame rate                     : 46.875 FPS (1024 SPF)
Compression mode               : Lossy
Stream size                    : 5.57 MiB (3%)
Default                        : Yes
Alternate group                : 1



网盘下载失效不补:链接: https://pan.baidu.com/s/1uLkYMW65eM-x_LPCbYAshQ 提取码:
****此区域为收费内容****    需支付 15 金币后可查看立即购买



.
回复

使用道具 举报

0

主题

1406

帖子

3786

积分

4K家园VIP

Rank: 9Rank: 9Rank: 9

积分
3786
发表于 2021-1-12 11:30:09 | 显示全部楼层
路过 帮顶 嘿嘿
回复 支持 反对

使用道具 举报

0

主题

2048

帖子

7385

积分

4K家园VIP

Rank: 9Rank: 9Rank: 9

积分
7385
发表于 2021-1-12 13:10:10 | 显示全部楼层
太好啦&萬分感謝版主的無私發佈分享%
回复 支持 反对

使用道具 举报

0

主题

211

帖子

761

积分

新手上路

Rank: 1

积分
761
发表于 2021-1-12 21:34:21 | 显示全部楼层
谢谢楼主分享
回复 支持 反对

使用道具 举报

48

主题

1351

帖子

3875

积分

4K家园VIP

Rank: 9Rank: 9Rank: 9

积分
3875
发表于 3 天前 | 显示全部楼层
4K家园资源最近貌似越来越多了
回复 支持 反对

使用道具 举报

1

主题

1231

帖子

3499

积分

4K家园VIP

Rank: 9Rank: 9Rank: 9

积分
3499
发表于 昨天 16:09 | 显示全部楼层
站位支持
回复 支持 反对

使用道具 举报

您需要登录后才可以回帖 登录 | 立即注册

本版积分规则

精彩图文
Archiver|手机版|TAG|Sitemap|新帖|专题|联系我们:邮箱: 4kjia.com@gmail.com   

4k家园   ©2019