2020 P1Harmony - 警报器(东南)4k [2160P/MP4/310MB]

[复制链接]

2163

主题

2441

帖子

2万

积分

超级版主

Rank: 8Rank: 8

积分
20007
 楼主| 发表于 2021-1-13 11:00:00 | 显示全部楼层 |阅读模式

2020 P1Harmony - 警报器(东南)4k.mp4_20210107_203945.864.jpg 2020 P1Harmony - 警报器(东南)4k.mp4_20210107_204034.891.jpg 2020 P1Harmony - 警报器(东南)4k.mp4_20210107_204044.444.jpg 2020 P1Harmony - 警报器(东南)4k.mp4_20210107_204157.419.jpg

General
Complete name                  : E:\4KMV\2020 P1Harmony - 警报器(东南)4k.mp4
Format                         : MPEG-4
Format profile                 : Base Media
Codec ID                       : isom (isom/iso2/avc1/mp41)
File size                      : 310 MiB
Duration                       : 3 min 3 s
Overall bit rate               : 14.2 Mb/s
Writing application            : Lavf58.12.100
exvr                           : EX1.8.2(C1.0.9)

Video
ID                             : 1
Format                         : AVC
Format/Info                    : Advanced Video Codec
Format profile                 : High@L5.1
Format settings                : CABAC / 4 Ref Frames
Format settings, CABAC         : Yes
Format settings, Reference fra : 4 frames
Codec ID                       : avc1
Codec ID/Info                  : Advanced Video Coding
Duration                       : 3 min 3 s
Bit rate                       : 14.0 Mb/s
Width                          : 3 840 pixels
Height                         : 2 160 pixels
Display aspect ratio           : 16:9
Frame rate mode                : Constant
Frame rate                     : 29.970 (29970/1000) FPS
Color space                    : YUV
Chroma subsampling             : 4:2:0
Bit depth                      : 8 bits
Scan type                      : Progressive
Bits/(Pixel*Frame)             : 0.056
Stream size                    : 306 MiB (99%)
Color range                    : Limited
Color primaries                : BT.709
Transfer characteristics       : BT.709
Matrix coefficients            : BT.709
Codec configuration box        : avcC

Audio
ID                             : 2
Format                         : AAC LC
Format/Info                    : Advanced Audio Codec Low Complexity
Codec ID                       : mp4a-40-2
Duration                       : 3 min 3 s
Bit rate mode                  : Constant
Bit rate                       : 192 kb/s
Channel(s)                     : 2 channels
Channel layout                 : L R
Sampling rate                  : 48.0 kHz
Frame rate                     : 46.875 FPS (1024 SPF)
Compression mode               : Lossy
Stream size                    : 4.19 MiB (1%)
Default                        : Yes
Alternate group                : 1




网盘下载失效不补:链接: https://pan.baidu.com/s/1hXaU2mpY7DIcvkI6XAIdgg 提取码:
****此区域为收费内容****    需支付 15 金币后可查看立即购买



.
回复

使用道具 举报

1

主题

1265

帖子

3627

积分

4K家园VIP

Rank: 9Rank: 9Rank: 9

积分
3627
发表于 2021-1-13 11:00:04 | 显示全部楼层
楼猪V5啊
回复 支持 反对

使用道具 举报

1

主题

5

帖子

53

积分

4K家园VIP

Rank: 9Rank: 9Rank: 9

积分
53
发表于 2021-1-14 14:26:12 | 显示全部楼层
男的还是女的?看图片不辨雌雄,感觉不男不女的
回复 支持 反对

使用道具 举报

46

主题

1273

帖子

3647

积分

4K家园VIP

Rank: 9Rank: 9Rank: 9

积分
3647
发表于 2021-1-14 15:02:59 | 显示全部楼层
支持,楼下的跟上哈~
回复 支持 反对

使用道具 举报

1

主题

1025

帖子

3097

积分

4K家园VIP

Rank: 9Rank: 9Rank: 9

积分
3097
发表于 2021-1-14 17:45:06 | 显示全部楼层
不错 支持一个了
回复 支持 反对

使用道具 举报

47

主题

1338

帖子

3856

积分

4K家园VIP

Rank: 9Rank: 9Rank: 9

积分
3856
发表于 2021-1-16 18:39:33 | 显示全部楼层
支持你哈...................................
回复 支持 反对

使用道具 举报

55

主题

1305

帖子

3769

积分

4K家园VIP

Rank: 9Rank: 9Rank: 9

积分
3769
发表于 2021-1-16 21:12:44 | 显示全部楼层
看起来不错
回复 支持 反对

使用道具 举报

您需要登录后才可以回帖 登录 | 立即注册

本版积分规则

精彩图文
Archiver|手机版|TAG|Sitemap|新帖|专题|联系我们:邮箱: 4kjia.com@gmail.com   

4k家园   ©2019