2020 纪录片《吃货天下指南》第一季/7集全 4K高清下载/22.03GB

[复制链接]

258

主题

265

帖子

2848

积分

4K家园VIP

Rank: 9Rank: 9Rank: 9

积分
2848
 楼主| 发表于 2021-1-8 17:06:55 | 显示全部楼层 |阅读模式
MV5BMTZjZGRmZmYtMzMxMy00NTE4LTliZjUtMjY1NjAzYWRhYWVhXkEyXkFqcGdeQXVyMTEyMjM2NDc2._V1_.jpg

◎译  名 吃货天下指南
◎片  名 Eater’s Guide to the World
◎年  代 2020
◎产  地 美国
◎类  别 真人秀
◎语  言 英语
◎上映日期 2020-11-11(美国)
◎IMDb评分  6.4/10 from 14 users
◎IMDb链接  https://www.imdb.com/title/tt10276462/
◎豆瓣评分 /10 from 0 users
◎豆瓣链接 https://douban.com/subject/35173645/
◎主  演 玛娅·鲁道夫 Maya Rudolph

◎简  介



  美国知名主持人玛娅·鲁道夫将以旁白身份带领观众探索世界上不同的美食,例如来自太平洋西北地区﹑卡萨布兰卡﹑蒂华纳及哥斯达黎加等地方。


General
Unique ID                      : 167954548826949836705959236615964576335 (0x7E5ADE96C71FC2FAF14D45191801CA4F)
Complete name                  : D:\360安全浏览器下载\Eaters.Guide.to.the.World.S01.2160p.HULU.WEBRip.DDP5.1.x265-TEPES[rartv]\Eaters.Guide.to.the.World.S01E01.Dining.Alone.in.the.Pacific.Northwest.2160p.HULU.WEB-DL.DDP5.1.HEVC-TEPES.mkv
Format                         : Matroska
Format version                 : Version 4
File size                      : 3.26 GiB
Duration                       : 28 min 52 s
Overall bit rate               : 16.1 Mb/s
Encoded date                   : UTC 2021-01-07 08:30:05
Writing application            : mkvmerge v45.0.0 ('Heaven in Pennies') 64-bit
Writing library                : libebml v1.3.10 + libmatroska v1.5.2

Video
ID                             : 1
Format                         : HEVC
Format/Info                    : High Efficiency Video Coding
Format profile                 : Main 10@L5.1@Main
Codec ID                       : V_MPEGH/ISO/HEVC
Duration                       : 28 min 52 s
Bit rate                       : 15.9 Mb/s
Width                          : 3 840 pixels
Height                         : 2 160 pixels
Display aspect ratio           : 16:9
Frame rate mode                : Constant
Frame rate                     : 23.976 (24000/1001) FPS
Color space                    : YUV
Chroma subsampling             : 4:2:0
Bit depth                      : 10 bits
Bits/(Pixel*Frame)             : 0.080
Stream size                    : 3.20 GiB (98%)
Default                        : Yes
Forced                         : No

Audio
ID                             : 2
Format                         : E-AC-3
Format/Info                    : Enhanced AC-3
Commercial name                : Dolby Digital Plus
Codec ID                       : A_EAC3
Duration                       : 28 min 52 s
Bit rate mode                  : Constant
Bit rate                       : 256 kb/s
Channel(s)                     : 6 channels
Channel layout                 : L R C LFE Ls Rs
Sampling rate                  : 48.0 kHz
Frame rate                     : 31.250 FPS (1536 SPF)
Compression mode               : Lossy
Stream size                    : 52.9 MiB (2%)
Language                       : English
Service kind                   : Complete Main
Default                        : Yes
Forced                         : No

Text #1
ID                             : 3
Format                         : UTF-8
Codec ID                       : S_TEXT/UTF8
Codec ID/Info                  : UTF-8 Plain Text
Duration                       : 28 min 25 s
Bit rate                       : 118 b/s
Count of elements              : 564
Stream size                    : 24.6 KiB (0%)
Language                       : English
Default                        : No
Forced                         : No

Text #2
ID                             : 4
Format                         : UTF-8
Codec ID                       : S_TEXT/UTF8
Codec ID/Info                  : UTF-8 Plain Text
Duration                       : 28 min 25 s
Bit rate                       : 120 b/s
Count of elements              : 563
Stream size                    : 25.0 KiB (0%)
Language                       : Spanish
Default                        : No
Forced                         : No


Eaters.Guide.to.the.World.S01E01.Dining.Alone.in.the.Pacific.Northwest.2160p.HUL.jpg Eaters.Guide.to.the.World.S01E01.Dining.Alone.in.the.Pacific.Northwest.2160p.HUL.jpg Eaters.Guide.to.the.World.S01E01.Dining.Alone.in.the.Pacific.Northwest.2160p.HUL.jpg Eaters.Guide.to.the.World.S01E01.Dining.Alone.in.the.Pacific.Northwest.2160p.HUL.jpg


游客,如果您要查看本帖隐藏内容请回复




.
回复

使用道具 举报

55

主题

1418

帖子

4070

积分

4K家园VIP

Rank: 9Rank: 9Rank: 9

积分
4070
发表于 2021-1-8 17:07:12 | 显示全部楼层
正好需要啊
回复 支持 反对

使用道具 举报

0

主题

2168

帖子

7611

积分

4K家园VIP

Rank: 9Rank: 9Rank: 9

积分
7611
发表于 2021-1-8 18:10:47 | 显示全部楼层
太好啦&萬分感謝版主的無私發佈分享%
回复 支持 反对

使用道具 举报

0

主题

4

帖子

15

积分

新手上路

Rank: 1

积分
15
发表于 2021-1-8 20:19:36 | 显示全部楼层
好片子啊 看着就眼馋
回复 支持 反对

使用道具 举报

0

主题

1

帖子

10

积分

新手上路

Rank: 1

积分
10
发表于 2021-1-8 20:48:34 | 显示全部楼层
看看,支持
回复

使用道具 举报

51

主题

1375

帖子

3919

积分

4K家园VIP

Rank: 9Rank: 9Rank: 9

积分
3919
发表于 2021-1-12 02:00:00 | 显示全部楼层
看起来好像不错的样子
回复 支持 反对

使用道具 举报

0

主题

1142

帖子

3450

积分

4K家园VIP

Rank: 9Rank: 9Rank: 9

积分
3450
发表于 2021-1-12 07:55:54 | 显示全部楼层
占坑编辑ing
回复 支持 反对

使用道具 举报

2

主题

142

帖子

2465

积分

注册会员

Rank: 2

积分
2465
发表于 2021-1-12 09:50:07 | 显示全部楼层
看着就眼馋              
回复 支持 反对

使用道具 举报

2

主题

1163

帖子

3511

积分

4K家园VIP

Rank: 9Rank: 9Rank: 9

积分
3511
发表于 2021-1-14 11:06:51 | 显示全部楼层
我只是路过,不发表意见
回复 支持 反对

使用道具 举报

0

主题

1174

帖子

3538

积分

4K家园VIP

Rank: 9Rank: 9Rank: 9

积分
3538
发表于 2021-1-16 08:00:27 | 显示全部楼层
前排支持下
回复 支持 反对

使用道具 举报

您需要登录后才可以回帖 登录 | 立即注册

本版积分规则

精彩图文
Archiver|手机版|TAG|Sitemap|新帖|专题|联系我们:邮箱: 4kjia.com@gmail.com   

4k家园   ©2019