[4K电影] 《致命女郎/蛇蝎美人》4K高清版本下载/大小11.10GB

[复制链接]

240

主题

247

帖子

2670

积分

4K家园VIP

Rank: 9Rank: 9Rank: 9

积分
2670
 楼主| 发表于 6 天前 | 显示全部楼层 |阅读模式
MV5BZmI2OThhMmYtZjVjOC00NWE3LWIwOGItMWM1MTEzMGNiOTM4XkEyXkFqcGdeQXVyMTEyMjM2NDc2._V1_.jpg

◎译  名 致命女郎/蛇蝎美人
◎片  名 Fatale
◎年  代 2020
◎产  地 美国
◎类  别 惊悚
◎语  言 英语
◎上映日期 2020-12-18(美国)
◎IMDb评分 4.8/10 from 957 users
◎IMDb链接 https://www.imdb.com/title/tt8829830/
◎豆瓣评分 /10 from 0 users
◎豆瓣链接 https://movie.douban.com/subject/30382374/
◎片  长 102分钟
◎导  演 德翁·泰勒 Deon Taylor
◎编  剧 戴维·朗格利 David Loughery
◎主  演 希拉里·斯万克 Hilary Swank
      迈克尔·伊雷 Michael Ealy
      迈克·柯尔特 Mike Colter
      卡莉·霍克 Kali Hawk
      丹尼·皮诺 Danny Pino
      达马里斯·刘易斯 Damaris Lewis
      萨姆·戴利 Sam Daly
      杰弗里·欧文斯 Geoffrey Owens
      大卫·霍夫林 David Hoflin
      奥克莉·布尔 Oakley Bull
      达拉斯·钱德勒 Dallas Chandler
      泰里恩·特纳 Tyrin Turner
      朱莉安娜·唐纳德 Juliana Donald
      莱克萨·格鲁克 Lexa Gluck
      丹尼丝·道丝 Denise Dowse
      凯瑞·威斯特科特 Kerry Westcott
      Ian Stanley
      Sasha Golberg

◎标  签 2020 | 美国 | 电影 | 悬疑 | 惊悚 | 四点一 | 剧情 | 其他电影

◎简  介

  影片讲述一个成功的体育经纪人达伦(迈克尔·伊雷饰),当他被卷入由一个身份存疑、不知羞耻但行为坚定的侦探(希拉里·斯万克饰)领导的警方调查中,他原本的完美生活渐渐消失……
Video
ID : 1
Format : HEVC
Format/Info : High Efficiency Video Coding
Format profile : Main@L5.1@Main
Codec ID : V_MPEGH/ISO/HEVC
Duration : 1 h 42 min
Bit rate : 14.8 Mb/s
Width : 3 840 pixels
Height : 2 160 pixels
Display aspect ratio : 16:9
Frame rate mode : Constant
Frame rate : 23.976 (24000/1001/189150) FPS
Color space : YUV
Chroma subsampling : 4:2:0
Bit depth : 8 bits
Bits/(Pixel*Frame) : 0.074
Stream size : 10.6 GiB (96%)
Default : Yes
Forced : No
Color range : Limited
Color primaries : BT.709
Transfer characteristics : BT.709
Matrix coefficients : BT.709

Audio
ID : 2
Format : E-AC-3
Format/Info : Enhanced AC-3
Commercial name : Dolby Digital Plus
Codec ID : A_EAC3
Duration : 1 h 42 min
Bit rate mode : Constant
Bit rate : 256 kb/s
Channel(s) : 6 channels
Channel layout : L R C LFE Ls Rs
Sampling rate : 48.0 kHz
Frame rate : 31.250 FPS (1536 SPF)
Compression mode : Lossy
Stream size : 188 MiB (2%)
Language : English
Service kind : Complete Main
Default : Yes
Forced : No

Text
ID : 3
Format : UTF-8
Codec ID : S_TEXT/UTF8
Codec ID/Info : UTF-8 Plain Text
Language : English
Default : No
Forced : No


95882980451771374907_thumb.png 87424072697416666412_thumb.png 17964047061729498464_thumb.png


游客,如果您要查看本帖隐藏内容请回复

游客,如果您要查看本帖隐藏内容请回复






.
.
回复

使用道具 举报

1

主题

1158

帖子

3338

积分

4K家园VIP

Rank: 9Rank: 9Rank: 9

积分
3338
发表于 6 天前 | 显示全部楼层
额.....这个可以有
回复 支持 反对

使用道具 举报

0

主题

5

帖子

18

积分

新手上路

Rank: 1

积分
18
发表于 6 天前 | 显示全部楼层
楼主用心了,内容非常精彩。
回复 支持 反对

使用道具 举报

0

主题

1

帖子

6

积分

新手上路

Rank: 1

积分
6
发表于 6 天前 | 显示全部楼层
感谢楼主,内容很棒
回复 支持 反对

使用道具 举报

0

主题

2

帖子

9

积分

新手上路

Rank: 1

积分
9
发表于 6 天前 | 显示全部楼层
Thanks for sharing
回复 支持 反对

使用道具 举报

0

主题

2030

帖子

7335

积分

4K家园VIP

Rank: 9Rank: 9Rank: 9

积分
7335
发表于 5 天前 | 显示全部楼层
太好啦&萬分感謝版主的無私發佈分享%
回复 支持 反对

使用道具 举报

0

主题

245

帖子

2347

积分

4K家园VIP

Rank: 9Rank: 9Rank: 9

积分
2347
QQ
发表于 5 天前 | 显示全部楼层
谢谢楼主分享,辛苦了!
回复 支持 反对

使用道具 举报

0

主题

1453

帖子

3947

积分

4K家园VIP

Rank: 9Rank: 9Rank: 9

积分
3947
发表于 4 天前 | 显示全部楼层
支持楼主,用户楼主,楼主英明呀!!!
回复 支持 反对

使用道具 举报

3

主题

1204

帖子

3450

积分

4K家园VIP

Rank: 9Rank: 9Rank: 9

积分
3450
发表于 3 天前 | 显示全部楼层
佩服佩服!
回复 支持 反对

使用道具 举报

0

主题

4

帖子

376

积分

新手上路

Rank: 1

积分
376
发表于 昨天 11:43 | 显示全部楼层
致命女郎   4K   mkv
回复 支持 反对

使用道具 举报

您需要登录后才可以回帖 登录 | 立即注册

本版积分规则

精彩图文
Archiver|手机版|TAG|Sitemap|新帖|专题|联系我们:邮箱: 4kjia.com@gmail.com   

4k家园   ©2019