[4K电影] 《噪声终极播放列表》4K高清下载/12.55GB

[复制链接]

358

主题

368

帖子

3631

积分

4K家园VIP

Rank: 9Rank: 9Rank: 9

积分
3631
 楼主| 发表于 2021-1-15 20:46:51 | 显示全部楼层 |阅读模式

MV5BODBjN2ZkYmYtMDA4NS00YmY5LWI1NDktODZmMDM2ZTllZmEzXkEyXkFqcGdeQXVyMDM2NDM2MQ@@._V1_.jpg

◎译  名 噪声终极播放列表
◎片  名 The Ultimate Playlist of Noise
◎年  代 2021
◎产  地 美国
◎类  别 
◎语  言 英语
◎上映日期 2021-01-15(美国)
◎IMDb链接 https://www.imdb.com/title/tt11268742/
◎豆瓣评分 /10 from 0 users
◎豆瓣链接 https://movie.douban.com/subject/35055004/
◎主  演 玛德琳·布鲁尔 Madeline Brewer
      基恩·约翰逊 Keean Johnson
      阿里拉·巴勒 Ariela Barer
      奥利弗·库珀 Oliver Cooper
      伊恩·戈麦斯 Ian Gomez
      艾米莉· 斯凯格斯 Emily Skeggs
      卡罗尔·曼塞尔 Carol Mansell
      戈登·威纳里克 Gordon Winarick
      凯莉·汉密尔顿 Carrie Hamilton

◎简  介

  马库斯是一名痴迷于音频的高中生,他得知自己必须接受脑部手术,这将使他成为聋子,他决定通过录制最终的噪音播放列表来控制自己的命运。


Video
ID : 1
Format : HEVC
Format/Info : High Efficiency Video Coding
Format profile : Main 10@L5.1@Main
Codec ID : V_MPEGH/ISO/HEVC
Duration : 1 h 39 min
Bit rate : 14.9 Mb/s
Width : 3 840 pixels
Height : 2 160 pixels
Display aspect ratio : 16:9
Frame rate mode : Constant
Frame rate : 24.000 FPS
Color space : YUV
Chroma subsampling : 4:2:0
Bit depth : 10 bits
Bits/(Pixel*Frame) : 0.075
Stream size : 10.4 GiB (98%)
Default : Yes
Forced : No

Audio
ID : 2
Format : E-AC-3
Format/Info : Enhanced AC-3
Commercial name : Dolby Digital Plus
Codec ID : A_EAC3
Duration : 1 h 39 min
Bit rate mode : Constant
Bit rate : 256 kb/s
Channel(s) : 6 channels
Channel layout : L R C LFE Ls Rs
Sampling rate : 48.0 kHz
Frame rate : 31.250 FPS (1536 SPF)
Compression mode : Lossy
Stream size : 182 MiB (2%)
Title : English
Language : English
Service kind : Complete Main
Default : No
Forced : No

Text #1
ID : 3
Format : UTF-8
Codec ID : S_TEXT/UTF8
Codec ID/Info : UTF-8 Plain Text
Duration : 1 h 38 min
Bit rate : 56 b/s
Count of elements : 1284
Stream size : 40.6 KiB (0%)
Title : English
Language : English
Default : No
Forced : No

Text #2
ID : 4
Format : UTF-8
Codec ID : S_TEXT/UTF8
Codec ID/Info : UTF-8 Plain Text
Duration : 1 h 37 min
Bit rate : 61 b/s
Count of elements : 1356
Stream size : 43.7 KiB (0%)
Title : Spanish
Language : Spanish
Default : No
Forced : No


69018443779091272810_thumb.png 61207554772455805567_thumb.png 42880703660609706933_thumb.png


游客,如果您要查看本帖隐藏内容请回复




.
回复

使用道具 举报

1

主题

1182

帖子

3410

积分

4K家园VIP

Rank: 9Rank: 9Rank: 9

积分
3410
发表于 2021-1-15 20:47:17 | 显示全部楼层
前排支持下了哦~
回复 支持 反对

使用道具 举报

0

主题

2813

帖子

8711

积分

4K家园VIP

Rank: 9Rank: 9Rank: 9

积分
8711
发表于 2021-1-15 22:12:47 | 显示全部楼层
太好啦&萬分感謝版主的無私發佈分享%
回复 支持 反对

使用道具 举报

0

主题

1064

帖子

3178

积分

4K家园VIP

Rank: 9Rank: 9Rank: 9

积分
3178
发表于 2021-1-18 00:16:05 | 显示全部楼层
4K家园不错,希望这种资源越多越好
回复 支持 反对

使用道具 举报

2

主题

1030

帖子

3110

积分

4K家园VIP

Rank: 9Rank: 9Rank: 9

积分
3110
发表于 2021-1-19 23:20:44 | 显示全部楼层
沙发位出租,
回复 支持 反对

使用道具 举报

0

主题

1176

帖子

3544

积分

4K家园VIP

Rank: 9Rank: 9Rank: 9

积分
3544
发表于 2021-1-20 04:39:50 | 显示全部楼层
广告位,,坐下看看
回复 支持 反对

使用道具 举报

1

主题

1247

帖子

3547

积分

4K家园VIP

Rank: 9Rank: 9Rank: 9

积分
3547
发表于 2021-1-24 23:13:13 | 显示全部楼层
感谢推荐,确实不错
回复 支持 反对

使用道具 举报

您需要登录后才可以回帖 登录 | 立即注册

本版积分规则

精彩图文
Archiver|手机版|TAG|Sitemap|新帖|专题|联系我们:邮箱: 4kjia.com@gmail.com   

4k家园   ©2019