[4K电影] [4K首发资源]《世界新闻/结叛同行》4K高清下载/大小12.77GB

[复制链接]

311

主题

321

帖子

3324

积分

4K家园VIP

Rank: 9Rank: 9Rank: 9

积分
3324
 楼主| 发表于 2021-1-15 21:07:52 | 显示全部楼层 |阅读模式
本帖最后由 最爱4K哟 于 2021-1-15 21:23 编辑

9389abcfcfd80baa60d63c67e03fd155.jpg

◎译  名 世界新闻/读报人(台)/结叛同行(港)
◎片  名 News of the World
◎年  代 2020
◎产  地 美国
◎类  别 剧情/动作/西部/冒险
◎语  言 英语
◎上映日期 2020-12-25(美国)
◎IMDb评分  7.1/10 from 1,241 users
◎IMDb链接  https://www.imdb.com/title/tt6878306/
◎豆瓣评分 /10 from 0 users
◎豆瓣链接 https://douban.com/subject/27042738/
◎片  长 118分钟
◎导  演 保罗·格林格拉斯 Paul Greengrass
◎编  剧 保罗·格林格拉斯 Paul Greengrass / 卢克·戴维斯 Luke Davies / 波莱特·吉尔斯 Paulette Jiles
◎主  演 汤姆·汉克斯 Tom Hanks
       海伦娜·泽格尔 Helena Zengel
       伊丽莎白·玛维尔 Elizabeth Marvel
       雷·迈克金农 Ray McKinnon
       梅尔·温宁汉姆 Mare Winningham
       尼尔·桑迪兰兹 Neil Sandilands
       楚克武迪·武吉 Chukwudi Iwuji
       托马斯·弗兰西斯·墨菲 Thomas Francis Murphy
       米歇尔·坎贝尔 Michelle Campbell
       弗莱德·赫钦格 Fred Hechinger
       迈克尔·安盖洛·科维诺 Michael Angelo Covino
       斯塔福德·道格拉斯 Stafford Douglas
       J·内森·西蒙斯 J. Nathan Simmons
       斯蒂芬妮·希尔 Stephanie Hill
       布兰登·韦德纳 Brenden Wedner
       汤姆·阿斯特 Tom Astor
       安迪·卡斯特利奇 Andy Kastelic
       克林特·奥本钦 Clint Obenchain


◎简  介


  美国内战结束后五年,三场战争的退伍军官杰佛森凯尔基得上尉(汤姆·汉克斯 饰),现在以读报人的身份从一个小镇到另一个小镇,和当地居民分享世界各地的精彩新闻。他在德州的平原遇到乔韩娜(海伦娜·泽格尔 饰),一 个六年前被凯奥瓦印第安人掳走并被收养的十岁女孩。乔韩娜对她未曾体验过的世界充满敌意,而且被迫被送回她的阿姨和姨丈身边。基得上尉答应护送这女孩回到她依照法律应该属于的地方。他们必须在环境严苛的野外跋山涉水好几百英哩,而且这两人在寻找一个他们都可以称为家园的地方时,将面对来自人类和大自然的巨大挑战。

  该片根据波莱特·吉尔斯同名小说改编。


◎获奖情况

  第33届芝加哥影评人协会奖  (2020)
  最具潜力演员(提名) 海伦娜·泽格尔

General
Complete name                  : News.of.the.World.2021.2160p.AMZN.WEB-DL.DDP5.1.HDR.HEVC-EVO.mkv
Format                         : Matroska
Format version                 : Version 4
File size                      : 11.4 GiB
Duration                       : 1 h 58 min
Overall bit rate               : 13.7 Mb/s
Movie name                     : EVO
Encoded date                   : UTC 2021-01-14 19:11:02
Writing application            : mkvmerge v49.0.0 ('Sick Of Losing Soulmates') 64-bit
Writing library                : libebml v1.4.0 + libmatroska v1.6.1
IsTruncated                    : Yes

Video
ID                             : 1
Format                         : HEVC
Format/Info                    : High Efficiency Video Coding
Format profile                 : Main 10@L5@Main
Codec ID                       : V_MPEGH/ISO/HEVC
Duration                       : 1 h 58 min
Bit rate                       : 12.8 Mb/s
Width                          : 3 840 pixels
Height                         : 2 160 pixels
Display aspect ratio           : 16:9
Frame rate mode                : Constant
Frame rate                     : 23.976 (24000/1001) FPS
Color space                    : YUV
Chroma subsampling             : 4:2:0 (Type 2)
Bit depth                      : 10 bits
Bits/(Pixel*Frame)             : 0.065
Stream size                    : 10.6 GiB (93%)
Default                        : Yes
Forced                         : No
Color range                    : Limited
Color primaries                : BT.2020
Transfer characteristics       : PQ
Matrix coefficients            : BT.2020 non-constant
Maximum Content Light Level    : 1000 cd/m2
Maximum Frame-Average Light Le : 184 cd/m2

Audio
ID                             : 3
Format                         : E-AC-3
Format/Info                    : Enhanced AC-3
Commercial name                : Dolby Digital Plus
Codec ID                       : A_EAC3
Duration                       : 1 h 58 min
Bit rate mode                  : Constant
Bit rate                       : 640 kb/s
Channel(s)                     : 6 channels
Channel layout                 : L R C LFE Ls Rs
Sampling rate                  : 48.0 kHz
Frame rate                     : 31.250 FPS (1536 SPF)
Compression mode               : Lossy
Stream size                    : 542 MiB (5%)
Title                          : English
Language                       : English
Service kind                   : Complete Main
Default                        : Yes
Forced                         : No

Text
ID                             : 2
Format                         : UTF-8
Codec ID                       : S_TEXT/UTF8
Codec ID/Info                  : UTF-8 Plain Text
Title                          : English
Language                       : English
Default                        : No
Forced                         : No




游客,如果您要查看本帖隐藏内容请回复



.
回复

使用道具 举报

0

主题

1214

帖子

3476

积分

中级会员

Rank: 4

积分
3476
发表于 2021-1-15 21:08:04 | 显示全部楼层
楼主呀,,,您太有才了。。。
回复 支持 反对

使用道具 举报

0

主题

2628

帖子

8428

积分

4K家园VIP

Rank: 9Rank: 9Rank: 9

积分
8428
发表于 2021-1-15 22:13:14 | 显示全部楼层
太好啦&萬分感謝版主的無私發佈分享%
回复 支持 反对

使用道具 举报

0

主题

1184

帖子

3564

积分

4K家园VIP

Rank: 9Rank: 9Rank: 9

积分
3564
发表于 2021-1-18 11:06:26 | 显示全部楼层
我也顶起出售广告位
回复 支持 反对

使用道具 举报

40

主题

1377

帖子

3927

积分

4K家园VIP

Rank: 9Rank: 9Rank: 9

积分
3927
发表于 2021-1-18 12:34:24 | 显示全部楼层
确实不错,顶先
回复 支持 反对

使用道具 举报

2

主题

1533

帖子

4191

积分

4K家园VIP

Rank: 9Rank: 9Rank: 9

积分
4191
发表于 2021-1-18 14:06:23 | 显示全部楼层
珍爱生命,果断回帖。
回复 支持 反对

使用道具 举报

1

主题

1141

帖子

3437

积分

4K家园VIP

Rank: 9Rank: 9Rank: 9

积分
3437
发表于 2021-1-18 18:56:50 | 显示全部楼层
前排支持下了哦~
回复 支持 反对

使用道具 举报

0

主题

2

帖子

12

积分

新手上路

Rank: 1

积分
12
发表于 2021-1-20 20:45:19 | 显示全部楼层
认真回帖,看看能不能下喽。
回复 支持 反对

使用道具 举报

0

主题

10

帖子

36

积分

新手上路

Rank: 1

积分
36
发表于 2021-1-22 01:12:14 | 显示全部楼层
感謝版主的無私發佈分享
回复 支持 反对

使用道具 举报

0

主题

1

帖子

6

积分

新手上路

Rank: 1

积分
6
发表于 2021-2-6 11:32:08 来自手机 | 显示全部楼层
么么哒
回复

使用道具 举报

您需要登录后才可以回帖 登录 | 立即注册

本版积分规则

精彩图文
Archiver|手机版|TAG|Sitemap|新帖|专题|联系我们:邮箱: 4kjia.com@gmail.com   

4k家园   ©2019