[4K电影] [4K首发资源]《前程似锦的女孩/花漾女子》4K高清下载/12.31GB

[复制链接]

309

主题

319

帖子

3305

积分

4K家园VIP

Rank: 9Rank: 9Rank: 9

积分
3305
 楼主| 发表于 2021-1-15 21:17:54 | 显示全部楼层 |阅读模式
本帖最后由 最爱4K哟 于 2021-1-25 11:12 编辑

7ad146d3ad6fb0e3952e2c807b5b4d34.jpg

◎译  名 前程似锦的女孩/有前途的年轻女子/花漾女子(台)
◎片  名 Promising Young Woman
◎年  代 2020
◎产  地 英国,美国
◎类  别 剧情 / 惊悚 / 犯罪
◎语  言 英语
◎上映日期 2020-01-25(圣丹斯电影节) / 2020-12-25(美国)
◎IMDb评分 7.4/10 from 8141 users
◎IMDb链接 https://www.imdb.com/title/tt9620292/
◎豆瓣评分 7.4/10 from 5499 users
◎豆瓣链接 https://movie.douban.com/subject/30450313/
◎片  长 113分钟
◎导  演 埃默拉尔德·芬内尔 Emerald Fennell
◎编  剧 埃默拉尔德·芬内尔 Emerald Fennell
◎主  演 凯瑞·穆里根 Carey Mulligan
      博·伯翰 Bo Burnham
      爱丽森·布里 Alison Brie
      拉弗恩·考克斯 Laverne Cox
      克兰西·布朗 Clancy Brown
      詹妮佛·库里奇 Jennifer Coolidge
      克里斯托夫·梅兹-普莱瑟 Christopher Mintz-Plasse
      莫莉·香侬 Molly Shannon
      斯利姆·克什里 Slim Khezri
      山姆·理查森 Sam Richardson
      斯蒂夫·蒙罗埃 Steve Monroe
      亚当·布罗迪 Adam Brody
      康妮·布里登 Connie Britton
      阿尔弗雷德·莫里纳 Alfred Molina
      马克思·格林菲尔德 Max Greenfield
      克里斯·劳威尔 Chris Lowell
      詹妮尔·麦基 Jenelle McKee
      雷·尼科尔森 Ray Nicholson
      斯嘉丽·斯宾塞 Scarlet Spencer
      艾莉·哈特 Alli Hart
      弗朗西斯卡·埃斯特韦斯 Francisca Estevez
      Timothy E. Goodwin
      安吉拉·周 Angela Zhou
      布莱恩·利利斯 Bryan Lillis
      Gabriel Oliva
      Loren Paul
      David Reed
      比比·博克斯 Abi Beaux



◎简  介

  每个人都说凯茜(凯瑞·穆里根 饰)是个很有前途的年轻女子,直到一场神秘事件突然发生使她的未来脱轨。但是在凯茜的生活中,一切看起来并非如此:她邪恶而又聪明,诱人但又狡猾,还在夜间过着秘密的双重生活。现在,意外的遭遇将使凯茜有机会纠正过去的错误。

◎获奖情况

  第41届伦敦影评人协会奖 ?(2021)
  年度电影(提名)
  年度女主角(提名) 凯瑞·穆里根
  年度英国/爱尔兰女演员(提名) 凯瑞·穆里根
  年度突破英国/爱尔兰电影人(提名) 埃默拉尔德·芬内尔

  第46届洛杉矶影评人协会奖 ?(2020)
  最佳女主角 凯瑞·穆里根
  最佳剧本 埃默拉尔德·芬内尔

  第33届芝加哥影评人协会奖 ?(2020)
  最佳影片(提名)
  最佳导演(提名) 埃默拉尔德·芬内尔
  最佳女主角(提名) 凯瑞·穆里根
  最佳原创剧本(提名) 埃默拉尔德·芬内尔
  最具突破导演(米洛斯·斯泰利克奖) 埃默拉尔德·芬内尔

General
Complete name                  : Promising.Young.Woman.2021.2160p.AMZN.WEB-DL.DDP5.1.HDR.HEVC-EVO.mkv
Format                         : Matroska
Format version                 : Version 4
File size                      : 761 MiB
Duration                       : 1 h 53 min
Overall bit rate               : 934 kb/s
Movie name                     : EVO
Encoded date                   : UTC 2021-01-14 11:42:36
Writing application            : mkvmerge v49.0.0 ('Sick Of Losing Soulmates') 64-bit
Writing library                : libebml v1.4.0 + libmatroska v1.6.1
IsTruncated                    : Yes

Video
ID                             : 1
Format                         : HEVC
Format/Info                    : High Efficiency Video Coding
Format profile                 : Main 10@L5@Main
HDR format                     : SMPTE ST 2094 App 4, Version 1, HDR10+ Profile B compatible
Codec ID                       : V_MPEGH/ISO/HEVC
Duration                       : 1 h 53 min
Bit rate                       : 275 kb/s
Width                          : 3 840 pixels
Height                         : 1 600 pixels
Display aspect ratio           : 2.40:1
Frame rate mode                : Constant
Frame rate                     : 23.976 (24000/1001) FPS
Color space                    : YUV
Chroma subsampling             : 4:2:0
Bit depth                      : 10 bits
Bits/(Pixel*Frame)             : 0.002
Stream size                    : 224 MiB (29%)
Default                        : Yes
Forced                         : No
Color range                    : Limited
Color primaries                : BT.2020
Transfer characteristics       : PQ
Matrix coefficients            : BT.2020 non-constant
Mastering display color primar : BT.2020
Mastering display luminance    : min: 0.0050 cd/m2, max: 1000 cd/m2
Maximum Content Light Level    : 886 cd/m2
Maximum Frame-Average Light Le : 336 cd/m2

Audio
ID                             : 2
Format                         : E-AC-3
Format/Info                    : Enhanced AC-3
Commercial name                : Dolby Digital Plus
Codec ID                       : A_EAC3
Duration                       : 1 h 53 min
Bit rate mode                  : Constant
Bit rate                       : 640 kb/s
Channel(s)                     : 6 channels
Channel layout                 : L R C LFE Ls Rs
Sampling rate                  : 48.0 kHz
Frame rate                     : 31.250 FPS (1536 SPF)
Compression mode               : Lossy
Stream size                    : 521 MiB (69%)
Language                       : English
Service kind                   : Complete Main
Default                        : Yes
Forced                         : No

13766188392180985170_thumb.png 51602071494339631550_thumb.png 58559757286411062146_thumb.png


游客,如果您要查看本帖隐藏内容请回复




.
回复

使用道具 举报

1

主题

1163

帖子

3505

积分

4K家园VIP

Rank: 9Rank: 9Rank: 9

积分
3505
发表于 2021-1-15 21:18:02 | 显示全部楼层
看起来不错
回复 支持 反对

使用道具 举报

0

主题

2608

帖子

8395

积分

4K家园VIP

Rank: 9Rank: 9Rank: 9

积分
8395
发表于 2021-1-15 22:14:35 | 显示全部楼层
太好啦&萬分感謝版主的無私發佈分享%
回复 支持 反对

使用道具 举报

56

主题

1372

帖子

4000

积分

4K家园VIP

Rank: 9Rank: 9Rank: 9

积分
4000
发表于 2021-1-17 18:34:59 来自手机 | 显示全部楼层
这个资源我记得是一套的,楼主还有没有
回复 支持 反对

使用道具 举报

0

主题

2

帖子

9

积分

新手上路

Rank: 1

积分
9
发表于 2021-1-19 13:40:22 | 显示全部楼层
1234654654698796
回复 支持 反对

使用道具 举报

0

主题

1492

帖子

4112

积分

4K家园VIP

Rank: 9Rank: 9Rank: 9

积分
4112
发表于 2021-1-22 18:19:11 | 显示全部楼层
占坑编辑ing
回复 支持 反对

使用道具 举报

0

主题

19

帖子

157

积分

新手上路

Rank: 1

积分
157
发表于 2021-1-24 19:39:30 | 显示全部楼层
感谢分享
回复

使用道具 举报

47

主题

1319

帖子

3773

积分

4K家园VIP

Rank: 9Rank: 9Rank: 9

积分
3773
发表于 2021-1-26 17:53:38 | 显示全部楼层
啊啊啊啊啊啊啊啊啊啊啊
回复 支持 反对

使用道具 举报

1

主题

1213

帖子

3483

积分

4K家园VIP

Rank: 9Rank: 9Rank: 9

积分
3483
发表于 2021-1-28 18:36:01 | 显示全部楼层
4K家园资源最近貌似越来越多了
回复 支持 反对

使用道具 举报

0

主题

2

帖子

13

积分

新手上路

Rank: 1

积分
13
发表于 2021-1-28 18:59:06 | 显示全部楼层
感谢楼主分享 辛苦了
回复 支持 反对

使用道具 举报

您需要登录后才可以回帖 登录 | 立即注册

本版积分规则

精彩图文
Archiver|手机版|TAG|Sitemap|新帖|专题|联系我们:邮箱: 4kjia.com@gmail.com   

4k家园   ©2019