2020 Rocket Punch - THE THE (Special Choreography Video) 4k [2160P/MP4/347MB]

[复制链接]

2209

主题

2493

帖子

2万

积分

超级版主

Rank: 8Rank: 8

积分
20498
 楼主| 发表于 2021-1-17 10:30:00 | 显示全部楼层 |阅读模式

2020 Rocket Punch - THE THE (Special Choreography Video) 4k.mp4_20210116_205839.322.jpg 2020 Rocket Punch - THE THE (Special Choreography Video) 4k.mp4_20210116_205900.442.jpg 2020 Rocket Punch - THE THE (Special Choreography Video) 4k.mp4_20210116_205909.648.jpg 2020 Rocket Punch - THE THE (Special Choreography Video) 4k.mp4_20210116_205917.122.jpg

General
Complete name                  :2020 Rocket Punch - THE THE (Special Choreography Video) 4k.mp4
Format                         : MPEG-4
Format profile                 : Base Media
Codec ID                       : isom (isom/iso2/avc1/mp41)
File size                      : 347 MiB
Duration                       : 3 min 19 s
Overall bit rate               : 14.6 Mb/s
Writing application            : Lavf58.12.100
exvr                           : EX1.8.2(C1.0.9)

Video
ID                             : 1
Format                         : AVC
Format/Info                    : Advanced Video Codec
Format profile                 : High@L5.1
Format settings                : CABAC / 4 Ref Frames
Format settings, CABAC         : Yes
Format settings, Reference fra : 4 frames
Codec ID                       : avc1
Codec ID/Info                  : Advanced Video Coding
Duration                       : 3 min 19 s
Bit rate                       : 14.4 Mb/s
Width                          : 3 840 pixels
Height                         : 2 160 pixels
Display aspect ratio           : 16:9
Frame rate mode                : Constant
Frame rate                     : 23.976 (23976/1000) FPS
Color space                    : YUV
Chroma subsampling             : 4:2:0
Bit depth                      : 8 bits
Scan type                      : Progressive
Bits/(Pixel*Frame)             : 0.072
Stream size                    : 342 MiB (99%)
Codec configuration box        : avcC

Audio
ID                             : 2
Format                         : AAC LC
Format/Info                    : Advanced Audio Codec Low Complexity
Codec ID                       : mp4a-40-2
Duration                       : 3 min 19 s
Bit rate mode                  : Constant
Bit rate                       : 192 kb/s
Channel(s)                     : 2 channels
Channel layout                 : L R
Sampling rate                  : 48.0 kHz
Frame rate                     : 46.875 FPS (1024 SPF)
Compression mode               : Lossy
Stream size                    : 4.57 MiB (1%)
Default                        : Yes
Alternate group                : 1




网盘下载失效不补:链接: https://pan.baidu.com/s/11rfoCLRRc8WWyk71VhMiTQ 提取码:
****此区域为收费内容****    需支付 15 金币后可查看立即购买



.
回复

使用道具 举报

0

主题

1254

帖子

3568

积分

4K家园VIP

Rank: 9Rank: 9Rank: 9

积分
3568
发表于 2021-1-17 10:30:05 | 显示全部楼层
多谢楼主分享
回复 支持 反对

使用道具 举报

0

主题

2608

帖子

8395

积分

4K家园VIP

Rank: 9Rank: 9Rank: 9

积分
8395
发表于 2021-1-17 12:07:22 | 显示全部楼层
太好啦&萬分感謝版主的無私發佈分享%
回复 支持 反对

使用道具 举报

0

主题

1473

帖子

4003

积分

中级会员

Rank: 4

积分
4003
发表于 2021-1-17 18:09:47 | 显示全部楼层
呵呵,低调,低调!
回复 支持 反对

使用道具 举报

1

主题

1277

帖子

3663

积分

4K家园VIP

Rank: 9Rank: 9Rank: 9

积分
3663
发表于 2021-1-17 20:46:20 | 显示全部楼层
为了三千积分!
回复 支持 反对

使用道具 举报

3

主题

1191

帖子

3591

积分

4K家园VIP

Rank: 9Rank: 9Rank: 9

积分
3591
发表于 2021-1-17 22:38:09 来自手机 | 显示全部楼层
支持楼主,用户楼主,楼主英明呀!!!
回复 支持 反对

使用道具 举报

36

主题

1248

帖子

3564

积分

4K家园VIP

Rank: 9Rank: 9Rank: 9

积分
3564
发表于 2021-1-17 23:01:51 | 显示全部楼层
哈哈,我只看看不说话
回复 支持 反对

使用道具 举报

0

主题

4

帖子

369

积分

新手上路

Rank: 1

积分
369
发表于 2021-1-21 21:36:10 | 显示全部楼层
太感谢了
回复

使用道具 举报

0

主题

304

帖子

1047

积分

注册会员

Rank: 2

积分
1047
发表于 2021-1-22 20:14:50 | 显示全部楼层
感谢楼主分享好电影
回复 支持 反对

使用道具 举报

您需要登录后才可以回帖 登录 | 立即注册

本版积分规则

精彩图文
Archiver|手机版|TAG|Sitemap|新帖|专题|联系我们:邮箱: 4kjia.com@gmail.com   

4k家园   ©2019