2020 SOHLHEE - 超单4k [2160P/MP4/217MB]

[复制链接]

2210

主题

2494

帖子

2万

积分

超级版主

Rank: 8Rank: 8

积分
20512
 楼主| 发表于 2021-1-18 10:30:00 | 显示全部楼层 |阅读模式
2020 SOHLHEE - 超单4k.mp4_20210116_210310.203.jpg 2020 SOHLHEE - 超单4k.mp4_20210116_210336.322.jpg 2020 SOHLHEE - 超单4k.mp4_20210116_210417.034.jpg 2020 SOHLHEE - 超单4k.mp4_20210116_210445.994.jpg


General
Complete name                  : 2020 SOHLHEE - 超单4k.mp4
Format                         : MPEG-4
Format profile                 : Base Media
Codec ID                       : isom (isom/iso2/avc1/mp41)
File size                      : 218 MiB
Duration                       : 3 min 8 s
Overall bit rate               : 9 700 kb/s
Writing application            : Lavf58.12.100
exvr                           : EX1.8.2(C1.0.9)

Video
ID                             : 1
Format                         : AVC
Format/Info                    : Advanced Video Codec
Format profile                 : High@L5.1
Format settings                : CABAC / 4 Ref Frames
Format settings, CABAC         : Yes
Format settings, Reference fra : 4 frames
Codec ID                       : avc1
Codec ID/Info                  : Advanced Video Coding
Duration                       : 3 min 8 s
Bit rate                       : 9 507 kb/s
Width                          : 3 840 pixels
Height                         : 2 026 pixels
Display aspect ratio           : 1.895
Original display aspect ratio  : 1.896
Frame rate mode                : Constant
Frame rate                     : 23.976 (23976/1000) FPS
Color space                    : YUV
Chroma subsampling             : 4:2:0
Bit depth                      : 8 bits
Scan type                      : Progressive
Bits/(Pixel*Frame)             : 0.051
Stream size                    : 213 MiB (98%)
Color range                    : Limited
Color primaries                : BT.709
Transfer characteristics       : BT.709
Matrix coefficients            : BT.709
Codec configuration box        : avcC

Audio
ID                             : 2
Format                         : AAC LC
Format/Info                    : Advanced Audio Codec Low Complexity
Codec ID                       : mp4a-40-2
Duration                       : 3 min 8 s
Bit rate mode                  : Constant
Bit rate                       : 192 kb/s
Channel(s)                     : 2 channels
Channel layout                 : L R
Sampling rate                  : 48.0 kHz
Frame rate                     : 46.875 FPS (1024 SPF)
Compression mode               : Lossy
Stream size                    : 4.31 MiB (2%)
Default                        : Yes
Alternate group                : 1



网盘下载失效不补:链接: https://pan.baidu.com/s/1ZPMs8G5MQYhgGiZmfIvceQ 提取码:
****此区域为收费内容****    需支付 15 金币后可查看立即购买



.
回复

使用道具 举报

49

主题

1259

帖子

3609

积分

4K家园VIP

Rank: 9Rank: 9Rank: 9

积分
3609
发表于 2021-1-18 10:30:10 来自手机 | 显示全部楼层
感谢分享
回复 支持 反对

使用道具 举报

46

主题

1359

帖子

3903

积分

4K家园VIP

Rank: 9Rank: 9Rank: 9

积分
3903
发表于 2021-1-19 10:34:28 | 显示全部楼层
试试先,好用再说
回复 支持 反对

使用道具 举报

2

主题

1273

帖子

3663

积分

4K家园VIP

Rank: 9Rank: 9Rank: 9

积分
3663
发表于 2021-1-19 22:08:37 | 显示全部楼层
为毛老子总也抢不到沙发?!!
回复 支持 反对

使用道具 举报

1

主题

1183

帖子

3575

积分

4K家园VIP

Rank: 9Rank: 9Rank: 9

积分
3575
发表于 2021-1-22 16:29:49 | 显示全部楼层
垃圾
回复 支持 反对

使用道具 举报

1

主题

1204

帖子

3632

积分

4K家园VIP

Rank: 9Rank: 9Rank: 9

积分
3632
发表于 2021-1-22 19:41:47 | 显示全部楼层
确实不错,顶先
回复 支持 反对

使用道具 举报

0

主题

304

帖子

1047

积分

注册会员

Rank: 2

积分
1047
发表于 2021-1-26 17:40:48 | 显示全部楼层
谢谢楼主分享
回复 支持 反对

使用道具 举报

您需要登录后才可以回帖 登录 | 立即注册

本版积分规则

精彩图文
Archiver|手机版|TAG|Sitemap|新帖|专题|联系我们:邮箱: 4kjia.com@gmail.com   

4k家园   ©2019