2020 泰妍-我怎么称呼你 4k [2160P/MP4/197MB]

[复制链接]

2212

主题

2497

帖子

2万

积分

超级版主

Rank: 8Rank: 8

积分
20561
 楼主| 发表于 2021-1-22 20:00:00 | 显示全部楼层 |阅读模式
2020 泰妍-我怎么称呼你4k.mp4_20210116_211842.449.jpg 2020 泰妍-我怎么称呼你4k.mp4_20210116_211849.042.jpg 2020 泰妍-我怎么称呼你4k.mp4_20210116_211902.266.jpg 2020 泰妍-我怎么称呼你4k.mp4_20210116_211908.122.jpg


General
Complete name                  : 2020 泰妍-我怎么称呼你4k.mp4
Format                         : MPEG-4
Format profile                 : Base Media
Codec ID                       : isom (isom/iso2/avc1/mp41)
File size                      : 197 MiB
Duration                       : 3 min 1 s
Overall bit rate               : 9 087 kb/s
Writing application            : Lavf58.12.100
exvr                           : EX1.8.2(C1.0.9)

Video
ID                             : 1
Format                         : AVC
Format/Info                    : Advanced Video Codec
Format profile                 : High@L5.1
Format settings                : CABAC / 4 Ref Frames
Format settings, CABAC         : Yes
Format settings, Reference fra : 4 frames
Codec ID                       : avc1
Codec ID/Info                  : Advanced Video Coding
Duration                       : 3 min 1 s
Bit rate                       : 8 892 kb/s
Width                          : 3 840 pixels
Height                         : 2 160 pixels
Display aspect ratio           : 16:9
Frame rate mode                : Constant
Frame rate                     : 23.976 (23976/1000) FPS
Color space                    : YUV
Chroma subsampling             : 4:2:0
Bit depth                      : 8 bits
Scan type                      : Progressive
Bits/(Pixel*Frame)             : 0.045
Stream size                    : 193 MiB (98%)
Color range                    : Limited
Color primaries                : BT.709
Transfer characteristics       : BT.709
Matrix coefficients            : BT.709
Codec configuration box        : avcC

Audio
ID                             : 2
Format                         : AAC LC
Format/Info                    : Advanced Audio Codec Low Complexity
Codec ID                       : mp4a-40-2
Duration                       : 3 min 1 s
Bit rate mode                  : Constant
Bit rate                       : 192 kb/s
Channel(s)                     : 2 channels
Channel layout                 : L R
Sampling rate                  : 48.0 kHz
Frame rate                     : 46.875 FPS (1024 SPF)
Compression mode               : Lossy
Stream size                    : 4.16 MiB (2%)
Default                        : Yes
Alternate group                : 1



网盘下载失效不补:链接: https://pan.baidu.com/s/155l0C3krgY0GuG-0G0hikw 提取码:
****此区域为收费内容****    需支付 15 金币后可查看立即购买



.
回复

使用道具 举报

50

主题

1353

帖子

3877

积分

4K家园VIP

Rank: 9Rank: 9Rank: 9

积分
3877
发表于 2021-1-22 20:00:07 | 显示全部楼层
发发呆,回回帖,工作结束~
回复 支持 反对

使用道具 举报

47

主题

1325

帖子

3791

积分

4K家园VIP

Rank: 9Rank: 9Rank: 9

积分
3791
发表于 2021-1-23 11:47:05 | 显示全部楼层
多发些资源啊
回复 支持 反对

使用道具 举报

0

主题

1396

帖子

4028

积分

4K家园VIP

Rank: 9Rank: 9Rank: 9

积分
4028
发表于 2021-1-25 22:24:35 | 显示全部楼层
4K应该不错,我也下个看看
回复 支持 反对

使用道具 举报

0

主题

324

帖子

1119

积分

注册会员

Rank: 2

积分
1119
发表于 2021-1-26 17:39:30 | 显示全部楼层
谢谢楼主分享
回复 支持 反对

使用道具 举报

0

主题

1298

帖子

3706

积分

4K家园VIP

Rank: 9Rank: 9Rank: 9

积分
3706
发表于 2021-1-28 00:19:01 | 显示全部楼层
这个资源我记得是一套的,楼主还有没有
回复 支持 反对

使用道具 举报

55

主题

1305

帖子

3791

积分

4K家园VIP

Rank: 9Rank: 9Rank: 9

积分
3791
发表于 2021-1-30 00:30:50 | 显示全部楼层
好像还可以
回复 支持 反对

使用道具 举报

0

主题

324

帖子

1119

积分

注册会员

Rank: 2

积分
1119
发表于 2021-1-31 12:02:41 | 显示全部楼层
感谢楼主分享
回复 支持 反对

使用道具 举报

0

主题

94

帖子

213

积分

新手上路

Rank: 1

积分
213
发表于 2021-2-3 14:53:49 | 显示全部楼层
跳转到最后一页
回复 支持 反对

使用道具 举报

您需要登录后才可以回帖 登录 | 立即注册

本版积分规则

精彩图文
Archiver|手机版|TAG|Sitemap|新帖|专题|联系我们:邮箱: 4kjia.com@gmail.com   

4k家园   ©2019