[4K记录视频] [国家地理] 中国香港(2020) [2160P/MKV/899MB]

[复制链接]

2212

主题

2497

帖子

2万

积分

超级版主

Rank: 8Rank: 8

积分
20561
 楼主| 发表于 2021-1-17 20:03:28 | 显示全部楼层 |阅读模式
2020 中国香港.mkv_20210117_195211.232.jpg 2020 中国香港.mkv_20210117_195233.180.jpg 2020 中国香港.mkv_20210117_195240.867.jpg 2020 中国香港.mkv_20210117_195252.867.jpg 2020 中国香港.mkv_20210117_195319.891.jpg 2020 中国香港.mkv_20210117_195311.123.jpg

简介:

在本此视频中,可以看到所有著名地标,例如国际贸易中心,两个国际金融中心,中央广场,银行大厦中国,中心,活动空间中央港口,告士打道,香港港口,维多利亚港,美丽的海湾,令人叹为观止的天际线等等!

General
Complete name                  : 2020 中国香港.mkv
Format                         : Matroska
Format version                 : Version 4
File size                      : 900 MiB
Duration                       : 10 min 6 s
Overall bit rate               : 12.4 Mb/s
Encoded date                   : UTC 2021-01-15 19:00:21
Writing application            : mkvmerge v52.0.0 ('Secret For The Mad') 64-bit
Writing library                : libebml v1.4.1 + libmatroska v1.6.2 / Lavf58.29.100

Video
ID                             : 1
Format                         : VP9
Codec ID                       : V_VP9
Duration                       : 10 min 6 s
Bit rate                       : 12.3 Mb/s
Width                          : 3 840 pixels
Height                         : 2 160 pixels
Display aspect ratio           : 16:9
Frame rate mode                : Constant
Frame rate                     : 30.000 FPS
Color space                    : YUV
Bits/(Pixel*Frame)             : 0.049
Stream size                    : 890 MiB (99%)
Default                        : Yes
Forced                         : No
Color range                    : Limited
Color primaries                : BT.709
Transfer characteristics       : BT.709
Matrix coefficients            : BT.709

Audio
ID                             : 2
Format                         : AAC LC
Format/Info                    : Advanced Audio Codec Low Complexity
Codec ID                       : A_AAC-2
Duration                       : 10 min 6 s
Bit rate                       : 128 kb/s
Channel(s)                     : 2 channels
Channel layout                 : L R
Sampling rate                  : 44.1 kHz
Frame rate                     : 43.066 FPS (1024 SPF)
Compression mode               : Lossy
Stream size                    : 9.26 MiB (1%)
Default                        : Yes
Forced                         : No


网盘下载失效不补:链接: https://pan.baidu.com/s/1PqV0v_4nOxIOd2xapdZUBA 提取码:
****此区域为收费内容****    需支付 15 金币后可查看立即购买



.
回复

使用道具 举报

0

主题

1484

帖子

4080

积分

4K家园VIP

Rank: 9Rank: 9Rank: 9

积分
4080
发表于 2021-1-17 20:03:33 | 显示全部楼层
鄙视楼下的顶帖没我快,哈哈
回复 支持 反对

使用道具 举报

0

主题

2813

帖子

8711

积分

4K家园VIP

Rank: 9Rank: 9Rank: 9

积分
8711
发表于 2021-1-17 21:36:41 | 显示全部楼层
太好啦&萬分感謝版主的無私發佈分享%
回复 支持 反对

使用道具 举报

0

主题

29

帖子

160

积分

新手上路

Rank: 1

积分
160
发表于 2021-1-18 00:10:44 | 显示全部楼层
鄙视楼下的顶帖没我快
回复 支持 反对

使用道具 举报

47

主题

1325

帖子

3791

积分

4K家园VIP

Rank: 9Rank: 9Rank: 9

积分
3791
发表于 2021-1-18 16:04:22 | 显示全部楼层
非常好,顶一下
回复 支持 反对

使用道具 举报

48

主题

1321

帖子

3785

积分

4K家园VIP

Rank: 9Rank: 9Rank: 9

积分
3785
发表于 2021-1-20 17:35:14 | 显示全部楼层
楼猪V5啊
回复 支持 反对

使用道具 举报

0

主题

1453

帖子

3963

积分

4K家园VIP

Rank: 9Rank: 9Rank: 9

积分
3963
发表于 2021-1-22 12:54:00 | 显示全部楼层
顶顶更健康
回复 支持 反对

使用道具 举报

1

主题

1212

帖子

3478

积分

4K家园VIP

Rank: 9Rank: 9Rank: 9

积分
3478
发表于 2021-1-23 23:29:57 | 显示全部楼层
好,很好,非常好!
回复 支持 反对

使用道具 举报

0

主题

31

帖子

81

积分

新手上路

Rank: 1

积分
81
发表于 5 天前 | 显示全部楼层
感谢楼主分享
回复 支持 反对

使用道具 举报

您需要登录后才可以回帖 登录 | 立即注册

本版积分规则

精彩图文
Archiver|手机版|TAG|Sitemap|新帖|专题|联系我们:邮箱: 4kjia.com@gmail.com   

4k家园   ©2019