[4K电影] 《越狱协议》4K高清下载/大小6.34GB

[复制链接]

318

主题

328

帖子

3377

积分

4K家园VIP

Rank: 9Rank: 9Rank: 9

积分
3377
 楼主| 发表于 2021-1-18 19:44:39 | 显示全部楼层 |阅读模式

MV5BZjMxZWQ3YmMtNDQzZC00OTgwLWIwOGItMmY4MjFlM2MxNmQ2XkEyXkFqcGdeQXVyMTk5MDU5OTA@._V1_.jpg

◎译  名 越狱协议/Jailbreak Pact/Túnel 49/Tunnel 49
◎片  名 Pacto de Fuga
◎年  代 2020
◎产  地 智利
◎类  别 剧情 / 动作 / 惊悚
◎语  言 西班牙语
◎上映日期 2020-01-23(智利)
◎IMDb评分 7.2/10 from 1236 users
◎IMDb链接 https://www.imdb.com/title/tt5538670/
◎豆瓣评分 6.9/10 from 266 users
◎豆瓣链接 https://movie.douban.com/subject/35130525/
◎片  长 138分钟
◎导  演 大卫·阿尔巴拉 David Albala
◎编  剧 大卫·阿尔巴拉 David Albala / Loreto Caro-Valdes
◎主  演 本杰明·维库纳 Benjamín Vicu?a
      安帕罗·诺格拉 Amparo Noguera
      尤西比奥·阿瑞纳斯 Eusebio Arenas
      帕特里西奥·孔特雷拉斯 Patricio Contreras
      弗朗西斯卡·加维兰 Francisca Gavilán
      罗伯托·法里亚斯 Roberto Farías
      马蒂奥·伊里伯林 Mateo Iribarren
      维克多·蒙特罗 Victor Montero
      威利·塞姆勒 Willy Semler

◎标  签 越狱 | 真实故事改编 | 智利 | 剧情 | 历史 | 2020 | 2020s | 影院

◎简  介

  1990年1月29日晚上,智利民主过渡时期开始前不久,数十名政治犯从圣地亚哥的监狱中逃脱,24名激进分子途经曼努埃尔·罗德里格斯爱国阵线时,花了18个月的时间挖一个隧道。他们用勺子,叉子和一把螺丝刀,足足挖了80多米长,并将55吨泥垢藏在监狱中。 无论是附近牢房里的普通囚犯,还是每天看守监狱的狱警,都没有发现这49名囚犯的计划——这是智利犯罪史上最令人惊讶和壮观的越狱事件之一。
Video
ID : 1
Format : HEVC
Format/Info : High Efficiency Video Coding
Format profile : Main@L5@Main
Codec ID : V_MPEGH/ISO/HEVC
Duration : 2 h 17 min
Bit rate : 5 943 kb/s
Width : 3 840 pixels
Height : 1 600 pixels
Display aspect ratio : 2.40:1
Frame rate mode : Constant
Frame rate : 23.976 (24000/1001/189150) FPS
Standard : NTSC
Color space : YUV
Chroma subsampling : 4:2:0
Bit depth : 8 bits
Bits/(Pixel*Frame) : 0.040
Stream size : 5.72 GiB (90%)
Writing library : x265 2.9_elemental9e0607aa5b6f:[Linux][GCC 4.8.5][64 bit] 8bit+10bit+12bit
Encoding settings : cpuid=1111039 / frame-threads=2 / wpp / no-pmode / no-pme / psnr / ssim / log-level=2 / csv / csv-log-level=2 / input-csp=1 / input-res=3840x1600 / interlace=0 / total-frames=0 / level-idc=50 / high-tier=1 / uhd-bd=0 / ref=5 / no-allow-non-conformance / no-repeat-headers / annexb / no-aud / no-hrd / info / hash=0 / no-temporal-layers / no-open-gop / min-keyint=61 / keyint=120 / gop-lookahead=0 / bframes=8 / b-adapt=2 / b-pyramid / bframe-bias=0 / rc-lookahead=120 / lookahead-slices=4 / scenecut=0 / radl=0 / no-intra-refresh / ctu=64 / min-cu-size=8 / rect / amp / max-tu-size=32 / tu-inter-depth=4 / tu-intra-depth=4 / limit-tu=4 / rdoq-level=2 / dynamic-rd=0.00 / no-ssim-rd / signhide / tskip / nr-intra=100 / nr-inter=600 / no-constrained-intra / strong-intra-smoothing / max-merge=3 / limit-refs=3 / limit-modes / me=3 / subme=3 / merange=57 / temporal-mvp / weightp / weightb / no-analyze-src-pics / deblock=0:0 / no-sao / no-sao-non-deblock / rd=4 / no-early-skip / no-rskip / no-fast-intra / tskip-fast / no-cu-lossless / b-intra / no-splitrd-skip / rdpenalty=0 / psy-rd=4.00 / psy-rdoq=10.00 / no-rd-refine / no-lossless / cbqpoffs=0 / crqpoffs=0 / rc=crf / crf=25.0 / qcomp=0.60 / qpstep=1 / stats-write=0 / stats-read=0 / vbv-maxrate=15000 / vbv-bufsize=20000 / vbv-init=0.9 / crf-max=0.0 / crf-min=0.0 / ipratio=1.10 / pbratio=1.00 / aq-mode=0 / aq-strength=1.50 / no-cutree / zone-count=0 / no-strict-cbr / qg-size=32 / rc-grain / qpmax=69 / qpmin=0 / const-vbv / sar=1 / overscan=0 / videoformat=2 / range=0 / colorprim=1 / transfer=1 / colormatrix=1 / chromaloc=0 / display-window=0 / max-cll=0,0 / min-luma=0 / max-luma=255 / log2-max-poc-lsb=8 / vui-timing-info / vui-hrd-info / slices=1 / opt-qp-pps / no-opt-ref-list-length-pps / no-multi-pass-opt-rps / scenecut-bias=0.05 / no-opt-cu-delta-qp / no-aq-motion / no-hdr / no-hdr-opt / no-dhdr10-opt / no-idr-recovery-sei / analysis-reuse-level=5 / scale-factor=0 / refine-intra=0 / refine-inter=0 / refine-mv=0 / no-limit-sao / ctu-info=0 / no-lowpass-dct / refine-mv-type=0 / copy-pic=1 / max-ausize-factor=1.0 / no-dynamic-refine / no-single-sei
Default : Yes
Forced : No
Color range : Limited
Color primaries : BT.709
Transfer characteristics : BT.709
Matrix coefficients : BT.709

Audio
ID : 2
Format : E-AC-3
Format/Info : Enhanced AC-3
Commercial name : Dolby Digital Plus
Codec ID : A_EAC3
Duration : 2 h 17 min
Bit rate mode : Constant
Bit rate : 640 kb/s
Channel(s) : 6 channels
Channel layout : L R C LFE Ls Rs
Sampling rate : 48.0 kHz
Frame rate : 31.250 FPS (1536 SPF)
Compression mode : Lossy
Stream size : 631 MiB (10%)
Title : DDP 5.1
Language : Spanish
Service kind : Complete Main
Default : No
Forced : No

Text #1
ID : 3
Format : UTF-8
Codec ID : S_TEXT/UTF8
Codec ID/Info : UTF-8 Plain Text
Duration : 2 h 11 min
Bit rate : 43 b/s
Count of elements : 1393
Stream size : 42.0 KiB (0%)
Language : English
Default : Yes
Forced : No

Text #2
ID : 4
Format : UTF-8
Codec ID : S_TEXT/UTF8
Codec ID/Info : UTF-8 Plain Text
Duration : 2 h 13 min
Bit rate : 56 b/s
Count of elements : 1536
Stream size : 55.0 KiB (0%)
Language : Spanish
Default : No
Forced : No


87248589636987929705_thumb.png 57173967467839242306_thumb.png


游客,如果您要查看本帖隐藏内容请回复



.
回复

使用道具 举报

0

主题

1256

帖子

3574

积分

4K家园VIP

Rank: 9Rank: 9Rank: 9

积分
3574
发表于 2021-1-18 19:45:37 | 显示全部楼层
楼猪辛苦了,支持一下分享好资源
回复 支持 反对

使用道具 举报

0

主题

2

帖子

12

积分

新手上路

Rank: 1

积分
12
发表于 2021-1-18 21:42:05 | 显示全部楼层
想看看能不能行
回复 支持 反对

使用道具 举报

0

主题

1159

帖子

3303

积分

4K家园VIP

Rank: 9Rank: 9Rank: 9

积分
3303
发表于 2021-1-19 04:24:24 来自手机 | 显示全部楼层
这个资源我记得是一套的,楼主还有没有
回复 支持 反对

使用道具 举报

1

主题

1164

帖子

3506

积分

4K家园VIP

Rank: 9Rank: 9Rank: 9

积分
3506
发表于 2021-1-20 05:45:37 来自手机 | 显示全部楼层
鄙视楼下的顶帖没我快,哈哈
回复 支持 反对

使用道具 举报

1

主题

1180

帖子

3404

积分

4K家园VIP

Rank: 9Rank: 9Rank: 9

积分
3404
发表于 2021-1-20 07:28:36 | 显示全部楼层
广告位,,坐下看看
回复 支持 反对

使用道具 举报

1

主题

1076

帖子

3210

积分

4K家园VIP

Rank: 9Rank: 9Rank: 9

积分
3210
发表于 2021-1-20 11:04:49 | 显示全部楼层
路过的帮顶
回复 支持 反对

使用道具 举报

0

主题

1

帖子

6

积分

新手上路

Rank: 1

积分
6
发表于 2021-2-10 19:51:03 | 显示全部楼层
太好看了
回复

使用道具 举报

您需要登录后才可以回帖 登录 | 立即注册

本版积分规则

精彩图文
Archiver|手机版|TAG|Sitemap|新帖|专题|联系我们:邮箱: 4kjia.com@gmail.com   

4k家园   ©2019