[4K记录视频] [国家地理] 魅力中国香港(2019) [2160P/MKV/551MB]

[复制链接]

2215

主题

2501

帖子

2万

积分

超级版主

Rank: 8Rank: 8

积分
20603
 楼主| 发表于 2021-1-26 13:51:01 | 显示全部楼层 |阅读模式

魔力中国香港(2019)WE__BRip 2160p.mkv_20210119_115950.325_meitu_3.jpg 魔力中国香港(2019)WE__BRip 2160p.mkv_20210119_120030.308_meitu_4.jpg 魔力中国香港(2019)WE__BRip 2160p.mkv_20210119_120104.709_meitu_5.jpg 魔力中国香港(2019)WE__BRip 2160p.mkv_20210119_120113.069_meitu_7.jpg 魔力中国香港(2019)WE__BRip 2160p.mkv_20210119_120144.444_meitu_6.jpg 魔力中国香港(2019)WE__BRip 2160p.mkv_20210119_120152.190_meitu_8.jpg 魔力中国香港(2019)WE__BRip 2160p.mkv_20210119_120159.932_meitu_9.jpg 魔力中国香港(2019)WE__BRip 2160p.mkv_20210119_120220.876_meitu_10.jpg

信息
标题:魅力中国香港
发行年: 2019
类型: 纪录片
导演: Timelab.pro

纪录片:

令人叹为观止的专题视频中的亚洲世界城市


General
Complete name                  : 魅力中国香港(2019)WE​​BRip 2160p.mkv
Format                         : Matroska
Format version                 : Version 4
File size                      : 551 MiB
Duration                       : 3 min 24 s
Overall bit rate               : 22.6 Mb/s
Encoded date                   : UTC 2020-06-14 20:06:34
Writing application            : mkvmerge v45.0.0 ('Heaven in Pennies') 64-bit
Writing library                : libebml v1.3.10 + libmatroska v1.5.2

Video
ID                             : 1
Format                         : AVC
Format/Info                    : Advanced Video Codec
Format profile                 : High@L5.2
Format settings                : CABAC / 5 Ref Frames
Format settings, CABAC         : Yes
Format settings, Reference fra : 5 frames
Codec ID                       : V_MPEG4/ISO/AVC
Duration                       : 3 min 24 s
Bit rate                       : 22.4 Mb/s
Width                          : 3 840 pixels
Height                         : 2 042 pixels
Display aspect ratio           : 1.881
Frame rate mode                : Constant
Frame rate                     : 25.000 FPS
Color space                    : YUV
Chroma subsampling             : 4:2:0
Bit depth                      : 8 bits
Scan type                      : Progressive
Bits/(Pixel*Frame)             : 0.114
Stream size                    : 545 MiB (99%)
Writing library                : x264 core 157 r10 d4099dd
Encoding settings              : cabac=1 / ref=5 / deblock=1:0:0 / analyse=0x3:0x113 / me=hex / subme=8 / psy=1 / psy_rd=1.00:0.00 / mixed_ref=1 / me_range=16 / chroma_me=1 / trellis=2 / 8x8dct=1 / cqm=0 / deadzone=21,11 / fast_pskip=1 / chroma_qp_offset=-2 / threads=48 / lookahead_threads=8 / sliced_threads=0 / nr=0 / decimate=1 / interlaced=0 / bluray_compat=0 / stitchable=1 / constrained_intra=0 / bframes=3 / b_pyramid=2 / b_adapt=2 / b_bias=0 / direct=3 / weightb=1 / open_gop=0 / weightp=2 / keyint=infinite / keyint_min=25 / scenecut=40 / intra_refresh=0 / rc_lookahead=50 / rc=crf / mbtree=1 / crf=20.0 / qcomp=0.60 / qpmin=5 / qpmax=69 / qpstep=4 / vbv_maxrate=24200 / vbv_bufsize=66000 / crf_max=0.0 / nal_hrd=none / filler=0 / ip_ratio=1.40 / aq=1:1.00
Default                        : Yes
Forced                         : No
Color range                    : Limited
Color primaries                : BT.709
Transfer characteristics       : BT.709
Matrix coefficients            : BT.709

Audio
ID                             : 2
Format                         : AAC LC
Format/Info                    : Advanced Audio Codec Low Complexity
Codec ID                       : A_AAC-2
Duration                       : 3 min 24 s
Bit rate                       : 253 kb/s
Channel(s)                     : 2 channels
Channel layout                 : L R
Sampling rate                  : 48.0 kHz
Frame rate                     : 46.875 FPS (1024 SPF)
Compression mode               : Lossy
Stream size                    : 6.17 MiB (1%)
Default                        : Yes
Forced                         : No



游客,如果您要查看本帖隐藏内容请回复



.
回复

使用道具 举报

1

主题

1228

帖子

3532

积分

4K家园VIP

Rank: 9Rank: 9Rank: 9

积分
3532
发表于 2021-1-26 13:51:07 | 显示全部楼层
高手云集 果断围观
回复 支持 反对

使用道具 举报

0

主题

2878

帖子

8813

积分

4K家园VIP

Rank: 9Rank: 9Rank: 9

积分
8813
发表于 2021-1-26 14:09:56 | 显示全部楼层
魅力中国香港4k
回复 支持 反对

使用道具 举报

0

主题

2

帖子

12

积分

新手上路

Rank: 1

积分
12
发表于 2021-1-26 15:31:02 | 显示全部楼层
好东西,谢谢分享
回复 支持 反对

使用道具 举报

0

主题

50

帖子

98

积分

新手上路

Rank: 1

积分
98
发表于 2021-1-26 16:42:47 | 显示全部楼层
感谢分享。
回复

使用道具 举报

0

主题

3

帖子

15

积分

新手上路

Rank: 1

积分
15
发表于 2021-1-27 00:00:19 来自手机 | 显示全部楼层
谢谢分享
回复

使用道具 举报

0

主题

3

帖子

15

积分

新手上路

Rank: 1

积分
15
发表于 2021-1-27 00:02:48 来自手机 | 显示全部楼层
感谢分享
回复

使用道具 举报

1

主题

8

帖子

41

积分

新手上路

Rank: 1

积分
41
发表于 2021-1-27 03:38:54 来自手机 | 显示全部楼层
啦啦
回复

使用道具 举报

0

主题

4

帖子

25

积分

新手上路

Rank: 1

积分
25
发表于 2021-1-27 09:20:29 来自手机 | 显示全部楼层
好想看看
回复

使用道具 举报

0

主题

1194

帖子

3598

积分

4K家园VIP

Rank: 9Rank: 9Rank: 9

积分
3598
发表于 2021-1-28 17:48:46 | 显示全部楼层
无论是不是沙发都得回复下
回复 支持 反对

使用道具 举报

您需要登录后才可以回帖 登录 | 立即注册

本版积分规则

精彩图文
Archiver|手机版|TAG|Sitemap|新帖|专题|联系我们:邮箱: 4kjia.com@gmail.com   

4k家园   ©2019