[4K记录视频] [国家地理] 塞伦盖蒂国家公园(2020) [2160P/MKV/3.02GB]

[复制链接]

2214

主题

2500

帖子

2万

积分

超级版主

Rank: 8Rank: 8

积分
20589
 楼主| 发表于 2021-1-20 10:54:35 | 显示全部楼层 |阅读模式

СЕРЕНГЕТИ.mkv_20210120_103257.106_meitu_1.jpg СЕРЕНГЕТИ.mkv_20210120_103356.996_meitu_2.jpg СЕРЕНГЕТИ.mkv_20210120_103413.509_meitu_3.jpg СЕРЕНГЕТИ.mkv_20210120_103425.115_meitu_4.jpg СЕРЕНГЕТИ.mkv_20210120_103440.180_meitu_5.jpg СЕРЕНГЕТИ.mkv_20210120_103449.340_meitu_6.jpg СЕРЕНГЕТИ.mkv_20210120_103500.268_meitu_7.jpg СЕРЕНГЕТИ.mkv_20210120_103508.228_meitu_10.jpg СЕРЕНГЕТИ.mkv_20210120_103548.468_meitu_8.jpg СЕРЕНГЕТИ.mkv_20210120_103555.116.jpg

信息
标题:塞伦盖蒂国家公园
发行: 2020
类型: 物种
国家/地区:坦桑尼亚
导演:米洛什·基切维奇

电影:

         塞伦盖蒂国家公园-世界上最大的野生动植物保护区之一,被认为是非洲野生动物园的最佳去处。塞伦盖蒂国家公园是联合国教科文组织世界遗产。



General
Complete name                  : 塞伦盖蒂国家公园(2020).mkv
Format                         : Matroska
Format version                 : Version 4
File size                      : 3.02 GiB
Duration                       : 23 min 35 s
Overall bit rate               : 18.3 Mb/s
Encoded date                   : UTC 2021-01-19 14:23:56
Writing application            : mkvmerge v52.0.0 ('Secret For The Mad') 64-bit
Writing library                : libebml v1.4.1 + libmatroska v1.6.2 / Lavf58.29.100

Video
ID                             : 1
Format                         : VP9
Codec ID                       : V_VP9
Duration                       : 23 min 35 s
Bit rate                       : 18.2 Mb/s
Width                          : 3 840 pixels
Height                         : 2 160 pixels
Display aspect ratio           : 16:9
Frame rate mode                : Constant
Frame rate                     : 29.970 (30000/1001) FPS
Color space                    : YUV
Bits/(Pixel*Frame)             : 0.073
Stream size                    : 3.00 GiB (99%)
Default                        : Yes
Forced                         : No
Color range                    : Limited
Color primaries                : BT.709
Transfer characteristics       : BT.709
Matrix coefficients            : BT.709

Audio
ID                             : 2
Format                         : AAC LC
Format/Info                    : Advanced Audio Codec Low Complexity
Codec ID                       : A_AAC-2
Duration                       : 23 min 35 s
Bit rate                       : 128 kb/s
Channel(s)                     : 2 channels
Channel layout                 : L R
Sampling rate                  : 44.1 kHz
Frame rate                     : 43.066 FPS (1024 SPF)
Compression mode               : Lossy
Stream size                    : 21.6 MiB (1%)
Default                        : Yes
Forced                         : No



游客,如果您要查看本帖隐藏内容请回复


需要百度网盘的请联系(有效期160天,过期无效),谢谢!

.
СЕРЕНГЕТИ.mkv_20210120_103555.116_meitu_9.jpg
СЕРЕНГЕТИ.mkv_20210120_103555.116_meitu_9.jpg
回复

使用道具 举报

0

主题

1175

帖子

3347

积分

4K家园VIP

Rank: 9Rank: 9Rank: 9

积分
3347
发表于 2021-1-20 10:54:39 | 显示全部楼层
支持支持再支持
回复 支持 反对

使用道具 举报

0

主题

3

帖子

16

积分

新手上路

Rank: 1

积分
16
发表于 2021-1-20 11:25:20 | 显示全部楼层
支持支持再支持
回复 支持 反对

使用道具 举报

0

主题

2

帖子

12

积分

新手上路

Rank: 1

积分
12
发表于 2021-1-20 11:45:49 | 显示全部楼层
感谢楼主
回复

使用道具 举报

0

主题

2826

帖子

8739

积分

4K家园VIP

Rank: 9Rank: 9Rank: 9

积分
8739
发表于 2021-1-20 13:47:26 | 显示全部楼层
太好啦&萬分感謝版主的無私發佈分享%
回复 支持 反对

使用道具 举报

52

主题

1321

帖子

3829

积分

4K家园VIP

Rank: 9Rank: 9Rank: 9

积分
3829
发表于 2021-1-20 17:18:23 | 显示全部楼层
一直在看
回复 支持 反对

使用道具 举报

0

主题

1

帖子

10

积分

新手上路

Rank: 1

积分
10
发表于 2021-1-21 11:25:55 | 显示全部楼层
回复就能下载吗?
回复 支持 反对

使用道具 举报

0

主题

1396

帖子

4028

积分

4K家园VIP

Rank: 9Rank: 9Rank: 9

积分
4028
发表于 2021-1-22 19:25:46 | 显示全部楼层
1v1飘过
回复 支持 反对

使用道具 举报

0

主题

2

帖子

9

积分

新手上路

Rank: 1

积分
9
发表于 2021-1-23 09:06:58 | 显示全部楼层
感谢楼主
回复

使用道具 举报

0

主题

50

帖子

98

积分

新手上路

Rank: 1

积分
98
发表于 2021-1-27 16:42:24 | 显示全部楼层
感谢分享
回复

使用道具 举报

您需要登录后才可以回帖 登录 | 立即注册

本版积分规则

精彩图文
Archiver|手机版|TAG|Sitemap|新帖|专题|联系我们:邮箱: 4kjia.com@gmail.com   

4k家园   ©2019