[4K记录视频] [国家地理] 南极洲的映像(2020) [2160P/MKV/990MB]

[复制链接]

2210

主题

2494

帖子

2万

积分

超级版主

Rank: 8Rank: 8

积分
20512
 楼主| 发表于 2021-1-22 22:15:56 | 显示全部楼层 |阅读模式
本帖最后由 叽里呱啦 于 2021-1-20 11:51 编辑

南极洲的映像(2020).mkv_20210120_114357.999.jpg 南极洲的映像(2020).mkv_20210120_114409.800.jpg 南极洲的映像(2020).mkv_20210120_114414.841.jpg 南极洲的映像(2020).mkv_20210120_114425.928.jpg 南极洲的映像(2020).mkv_20210120_114434.785.jpg 南极洲的映像(2020).mkv_20210120_114444.560.jpg 南极洲的映像(2020).mkv_20210120_114454.817.jpg

信息
标题:南极洲的映像
发行年份: 2020
类型: 种类
国家/地区:南极洲
时长:00 : 07 : 10
导演:弗洛伦特·皮奥韦桑

纪录片简介:

          尽管我们从南极洲归来时遇到了种种折磨,但我还是想制作一个视频,只显示令人叹为观止和原始的风景我们所看到的以及我们遇到的令人难以置信的野生动物。



General
Complete name                  :[国家地理] 南极洲的映像(2020).mkv
Format                         : Matroska
Format version                 : Version 4
File size                      : 991 MiB
Duration                       : 7 min 10 s
Overall bit rate               : 19.3 Mb/s
Encoded date                   : UTC 2020-12-05 19:11:24
Writing application            : mkvmerge v51.0.0 ('I Wish') 64-bit
Writing library                : libebml v1.4.0 + libmatroska v1.6.2

Video
ID                             : 1
Format                         : AVC
Format/Info                    : Advanced Video Codec
Format profile                 : High@L5.2
Format settings                : CABAC / 5 Ref Frames
Format settings, CABAC         : Yes
Format settings, Reference fra : 5 frames
Codec ID                       : V_MPEG4/ISO/AVC
Duration                       : 7 min 10 s
Bit rate                       : 19.0 Mb/s
Width                          : 3 840 pixels
Height                         : 2 160 pixels
Display aspect ratio           : 16:9
Frame rate mode                : Constant
Frame rate                     : 25.000 FPS
Color space                    : YUV
Chroma subsampling             : 4:2:0
Bit depth                      : 8 bits
Scan type                      : Progressive
Bits/(Pixel*Frame)             : 0.092
Stream size                    : 978 MiB (99%)
Writing library                : x264 core 160 r10 22fcbe1
Encoding settings              : cabac=1 / ref=5 / deblock=1:0:0 / analyse=0x3:0x113 / me=hex / subme=8 / psy=1 / psy_rd=1.00:0.00 / mixed_ref=1 / me_range=16 / chroma_me=1 / trellis=2 / 8x8dct=1 / cqm=0 / deadzone=21,11 / fast_pskip=1 / chroma_qp_offset=-2 / threads=48 / lookahead_threads=8 / sliced_threads=0 / nr=0 / decimate=1 / interlaced=0 / bluray_compat=0 / stitchable=1 / constrained_intra=0 / bframes=3 / b_pyramid=2 / b_adapt=2 / b_bias=0 / direct=3 / weightb=1 / open_gop=0 / weightp=2 / keyint=infinite / keyint_min=25 / scenecut=40 / intra_refresh=0 / rc_lookahead=50 / rc=crf / mbtree=1 / crf=20.0 / qcomp=0.60 / qpmin=5 / qpmax=69 / qpstep=4 / vbv_maxrate=24200 / vbv_bufsize=66000 / crf_max=0.0 / nal_hrd=none / filler=0 / ip_ratio=1.40 / aq=1:1.00
Default                        : Yes
Forced                         : No
Color range                    : Limited
Color primaries                : BT.709
Transfer characteristics       : BT.709
Matrix coefficients            : BT.709

Audio
ID                             : 2
Format                         : AAC LC
Format/Info                    : Advanced Audio Codec Low Complexity
Codec ID                       : A_AAC-2
Duration                       : 7 min 10 s
Bit rate                       : 253 kb/s
Channel(s)                     : 2 channels
Channel layout                 : L R
Sampling rate                  : 48.0 kHz
Frame rate                     : 46.875 FPS (1024 SPF)
Compression mode               : Lossy
Stream size                    : 13.0 MiB (1%)
Default                        : Yes
Forced                         : No


需要百度网盘的请联系(有效期160天,过期无效),谢谢!
游客,如果您要查看本帖隐藏内容请回复




.
回复

使用道具 举报

1

主题

1238

帖子

3728

积分

4K家园VIP

Rank: 9Rank: 9Rank: 9

积分
3728
发表于 2021-1-22 22:16:00 来自手机 | 显示全部楼层
沙发???
回复 支持 反对

使用道具 举报

44

主题

1309

帖子

3771

积分

4K家园VIP

Rank: 9Rank: 9Rank: 9

积分
3771
发表于 2021-1-22 23:56:32 来自手机 | 显示全部楼层
前排支持下
回复 支持 反对

使用道具 举报

3

主题

1215

帖子

3483

积分

4K家园VIP

Rank: 9Rank: 9Rank: 9

积分
3483
发表于 2021-1-23 02:13:49 | 显示全部楼层
前排顶,很好!
回复 支持 反对

使用道具 举报

0

主题

2628

帖子

8428

积分

4K家园VIP

Rank: 9Rank: 9Rank: 9

积分
8428
发表于 2021-1-23 09:13:40 | 显示全部楼层
太好啦&萬分感謝版主的無私發佈分享%
回复 支持 反对

使用道具 举报

1

主题

89

帖子

787

积分

新手上路

Rank: 1

积分
787
发表于 2021-1-23 09:25:11 | 显示全部楼层
很美的影像啊
回复 支持 反对

使用道具 举报

0

主题

3

帖子

16

积分

新手上路

Rank: 1

积分
16
发表于 2021-1-23 10:12:52 | 显示全部楼层
楼主辛苦了
回复 支持 反对

使用道具 举报

0

主题

2

帖子

9

积分

新手上路

Rank: 1

积分
9
发表于 2021-1-23 20:38:55 | 显示全部楼层
。。
回复

使用道具 举报

1

主题

1004

帖子

3032

积分

4K家园VIP

Rank: 9Rank: 9Rank: 9

积分
3032
发表于 2021-1-24 21:03:38 | 显示全部楼层
顶顶更健康
回复 支持 反对

使用道具 举报

41

主题

1371

帖子

3911

积分

4K家园VIP

Rank: 9Rank: 9Rank: 9

积分
3911
发表于 2021-1-25 14:09:00 | 显示全部楼层
顶顶更健康
回复 支持 反对

使用道具 举报

您需要登录后才可以回帖 登录 | 立即注册

本版积分规则

精彩图文
Archiver|手机版|TAG|Sitemap|新帖|专题|联系我们:邮箱: 4kjia.com@gmail.com   

4k家园   ©2019