[4K记录视频] [国家地理] 法国-巴黎(2020) [2160P/MKV/546MB]

[复制链接]

2212

主题

2497

帖子

2万

积分

超级版主

Rank: 8Rank: 8

积分
20561
 楼主| 发表于 2021-1-21 21:04:31 | 显示全部楼层 |阅读模式
本帖最后由 叽里呱啦 于 2021-1-20 12:48 编辑

巴黎巴黎(2020)WEBRip 2160p.mkv_20210120_123822.382.jpg 巴黎巴黎(2020)WEBRip 2160p.mkv_20210120_124004.262.jpg 巴黎巴黎(2020)WEBRip 2160p.mkv_20210120_123853.758.jpg 巴黎巴黎(2020)WEBRip 2160p.mkv_20210120_123929.471.jpg 巴黎巴黎(2020)WEBRip 2160p.mkv_20210120_123950.102.jpg 巴黎巴黎(2020)WEBRip 2160p.mkv_20210120_124014.070.jpg 巴黎巴黎(2020)WEBRip 2160p.mkv_20210120_124057.054.jpg 巴黎巴黎(2020)WEBRip 2160p.mkv_20210120_124028.102.jpg


信息
标题:巴黎
年份:2020
类型: 纪录片
国家/地区:法国
时长: 00:04 : 43

导演: Drone Snap

简介:、

     在此视频中,您可以看到所有著名的地标,例如埃菲尔铁塔,凯旋门,卢浮宫,圣心大教堂,塞纳河和巴黎圣母院。

General

Complete name                  : 国家地理\巴黎/巴黎(2020)WEBRip 2160p.mkv
Format                         : Matroska
Format version                 : Version 4
File size                      : 546 MiB
Duration                       : 4 min 43 s
Overall bit rate               : 16.1 Mb/s
Encoded date                   : UTC 2021-01-19 16:50:08
Writing application            : mkvmerge v52.0.0 ('Secret For The Mad') 64-bit
Writing library                : libebml v1.4.1 + libmatroska v1.6.2 / Lavf58.29.100

Video
ID                             : 1
Format                         : VP9
Codec ID                       : V_VP9
Duration                       : 4 min 43 s
Bit rate                       : 16.0 Mb/s
Width                          : 3 840 pixels
Height                         : 2 160 pixels
Display aspect ratio           : 16:9
Frame rate mode                : Constant
Frame rate                     : 30.000 FPS
Color space                    : YUV
Bits/(Pixel*Frame)             : 0.064
Stream size                    : 542 MiB (99%)
Default                        : Yes
Forced                         : No
Color range                    : Limited
Color primaries                : BT.709
Transfer characteristics       : BT.709
Matrix coefficients            : BT.709

Audio
ID                             : 2
Format                         : AAC LC
Format/Info                    : Advanced Audio Codec Low Complexity
Codec ID                       : A_AAC-2
Duration                       : 4 min 43 s
Bit rate                       : 128 kb/s
Channel(s)                     : 2 channels
Channel layout                 : L R
Sampling rate                  : 44.1 kHz
Frame rate                     : 43.066 FPS (1024 SPF)
Compression mode               : Lossy
Stream size                    : 4.33 MiB (1%)
Default                        : Yes
Forced                         : No


需要百度网盘的请联系本楼主(有效期160天,过期无效),谢谢!

游客,如果您要查看本帖隐藏内容请回复


.
回复

使用道具 举报

0

主题

1453

帖子

3963

积分

4K家园VIP

Rank: 9Rank: 9Rank: 9

积分
3963
发表于 2021-1-21 21:05:04 | 显示全部楼层
谢谢楼主
回复 支持 反对

使用道具 举报

0

主题

2813

帖子

8711

积分

4K家园VIP

Rank: 9Rank: 9Rank: 9

积分
8711
发表于 2021-1-21 21:58:33 | 显示全部楼层
太好啦&萬分感謝版主的無私發佈分享%
回复 支持 反对

使用道具 举报

1

主题

1218

帖子

3498

积分

4K家园VIP

Rank: 9Rank: 9Rank: 9

积分
3498
发表于 2021-1-21 22:43:24 | 显示全部楼层
分享的不错,希望楼主继续分享
回复 支持 反对

使用道具 举报

0

主题

5

帖子

18

积分

新手上路

Rank: 1

积分
18
发表于 2021-1-21 23:12:33 | 显示全部楼层
謝謝
回复

使用道具 举报

0

主题

3

帖子

16

积分

新手上路

Rank: 1

积分
16
发表于 2021-1-21 23:44:57 | 显示全部楼层
SHSSHI
回复

使用道具 举报

0

主题

2

帖子

12

积分

新手上路

Rank: 1

积分
12
发表于 2021-1-22 00:06:22 来自手机 | 显示全部楼层
謝謝樓主分享
回复 支持 反对

使用道具 举报

0

主题

1

帖子

6

积分

新手上路

Rank: 1

积分
6
发表于 2021-1-22 08:48:16 | 显示全部楼层
谢谢分享
回复

使用道具 举报

0

主题

2

帖子

9

积分

新手上路

Rank: 1

积分
9
发表于 2021-1-22 15:51:24 | 显示全部楼层
新人报到。
回复

使用道具 举报

0

主题

30

帖子

75

积分

新手上路

Rank: 1

积分
75
发表于 2021-1-23 07:33:37 | 显示全部楼层
感谢
回复

使用道具 举报

您需要登录后才可以回帖 登录 | 立即注册

本版积分规则

精彩图文
Archiver|手机版|TAG|Sitemap|新帖|专题|联系我们:邮箱: 4kjia.com@gmail.com   

4k家园   ©2019