[4K记录视频] [国家地理] 伊斯坦堡(2020) [2160P/MKV/811MB]

[复制链接]

2210

主题

2494

帖子

2万

积分

超级版主

Rank: 8Rank: 8

积分
20518
 楼主| 发表于 2021-1-26 13:50:24 | 显示全部楼层 |阅读模式
本帖最后由 叽里呱啦 于 2021-1-20 13:01 编辑

伊斯坦堡(2020)WEBRip 2160p.mkv_20210120_125115.625.jpg 伊斯坦堡(2020)WEBRip 2160p.mkv_20210120_125127.526.jpg 伊斯坦堡(2020)WEBRip 2160p.mkv_20210120_125137.246.jpg 伊斯坦堡(2020)WEBRip 2160p.mkv_20210120_125146.366.jpg 伊斯坦堡(2020)WEBRip 2160p.mkv_20210120_125158.333.jpg 伊斯坦堡(2020)WEBRip 2160p.mkv_20210120_125211.046.jpg 伊斯坦堡(2020)WEBRip 2160p.mkv_20210120_125233.550.jpg 伊斯坦堡(2020)WEBRip 2160p.mkv_20210120_125305.445.jpg

基本信息
标题:伊斯坦布尔
发行年: 2020
类型: 纪录片
国家/地区:土耳其
时长: 00 : 08 : 00

导演:Drone Snap

关于影片:
在这个视频:圣索菲亚大教堂,加拉塔桥塔,穆罕默德二世大桥,苏莱曼清真寺,烈士桥,Yavuz的苏丹大桥著名的大清真寺Selima,Eyup苏丹清真寺,当然还有Bosphorus河。


General
Complete name                  : 国家地理\伊斯坦堡(2020)WEBRip 2160p.mkv
Format                         : Matroska
Format version                 : Version 4
File size                      : 812 MiB
Duration                       : 8 min 0 s
Overall bit rate               : 14.2 Mb/s
Encoded date                   : UTC 2021-01-19 17:17:10
Writing application            : mkvmerge v52.0.0 ('Secret For The Mad') 64-bit
Writing library                : libebml v1.4.1 + libmatroska v1.6.2 / Lavf58.29.100

Video
ID                             : 1
Format                         : VP9
Codec ID                       : V_VP9
Duration                       : 8 min 0 s
Bit rate                       : 14.0 Mb/s
Width                          : 3 840 pixels
Height                         : 2 160 pixels
Display aspect ratio           : 16:9
Frame rate mode                : Constant
Frame rate                     : 30.000 FPS
Color space                    : YUV
Bits/(Pixel*Frame)             : 0.056
Stream size                    : 804 MiB (99%)
Default                        : Yes
Forced                         : No
Color range                    : Limited
Color primaries                : BT.709
Transfer characteristics       : BT.709
Matrix coefficients            : BT.709

Audio
ID                             : 2
Format                         : AAC LC
Format/Info                    : Advanced Audio Codec Low Complexity
Codec ID                       : A_AAC-2
Duration                       : 8 min 0 s
Bit rate                       : 128 kb/s
Channel(s)                     : 2 channels
Channel layout                 : L R
Sampling rate                  : 44.1 kHz
Frame rate                     : 43.066 FPS (1024 SPF)
Compression mode               : Lossy
Stream size                    : 7.33 MiB (1%)
Default                        : Yes
Forced                         : No




游客,如果您要查看本帖隐藏内容请回复



.
回复

使用道具 举报

1

主题

1180

帖子

3404

积分

4K家园VIP

Rank: 9Rank: 9Rank: 9

积分
3404
发表于 2021-1-26 13:50:28 | 显示全部楼层
楼猪V5啊
回复 支持 反对

使用道具 举报

0

主题

2686

帖子

8508

积分

4K家园VIP

Rank: 9Rank: 9Rank: 9

积分
8508
发表于 2021-1-26 14:07:52 | 显示全部楼层
太好啦&萬分感謝版主的無私發佈分享%
回复 支持 反对

使用道具 举报

0

主题

26

帖子

126

积分

新手上路

Rank: 1

积分
126
发表于 2021-1-26 14:58:09 | 显示全部楼层
谢谢分享!
回复

使用道具 举报

0

主题

5

帖子

18

积分

新手上路

Rank: 1

积分
18
发表于 2021-1-26 15:04:23 来自手机 | 显示全部楼层
真想去看看,实力不允许啊
回复 支持 反对

使用道具 举报

0

主题

5

帖子

18

积分

新手上路

Rank: 1

积分
18
发表于 2021-1-26 15:06:10 来自手机 | 显示全部楼层
美景我喜欢
回复 支持 反对

使用道具 举报

0

主题

5

帖子

18

积分

新手上路

Rank: 1

积分
18
发表于 2021-1-26 15:41:42 | 显示全部楼层
效果不错啊,感谢分享!
回复 支持 反对

使用道具 举报

0

主题

3

帖子

19

积分

新手上路

Rank: 1

积分
19
发表于 2021-1-26 16:17:00 | 显示全部楼层
谢谢楼主的奉献!!!!
回复 支持 反对

使用道具 举报

0

主题

50

帖子

98

积分

新手上路

Rank: 1

积分
98
发表于 2021-1-26 18:03:09 | 显示全部楼层
感谢分享。
回复

使用道具 举报

1

主题

1463

帖子

3979

积分

4K家园VIP

Rank: 9Rank: 9Rank: 9

积分
3979
发表于 2021-1-28 13:19:24 | 显示全部楼层
试试看吧
回复 支持 反对

使用道具 举报

您需要登录后才可以回帖 登录 | 立即注册

本版积分规则

精彩图文
Archiver|手机版|TAG|Sitemap|新帖|专题|联系我们:邮箱: 4kjia.com@gmail.com   

4k家园   ©2019