[4K记录视频] [国家地理] 恩戈罗火山口和保护区(2020)[2160P/MKV/2.36GB]

[复制链接]

2210

主题

2494

帖子

2万

积分

超级版主

Rank: 8Rank: 8

积分
20518
 楼主| 发表于 2021-1-23 10:52:14 | 显示全部楼层 |阅读模式
本帖最后由 叽里呱啦 于 2021-1-20 13:18 编辑

(发)恩戈罗火山口和保护区(2020)WEBRip 2160p.mkv_20210120_130751.717.jpg (发)恩戈罗火山口和保护区(2020)WEBRip 2160p.mkv_20210120_130813.405.jpg (发)恩戈罗火山口和保护区(2020)WEBRip 2160p.mkv_20210120_130833.358_meitu_5.j.jpg (发)恩戈罗火山口和保护区(2020)WEBRip 2160p.mkv_20210120_130847.573_meitu_3.j.jpg (发)恩戈罗火山口和保护区(2020)WEBRip 2160p.mkv_20210120_130852.837_meitu_4.j.jpg (发)恩戈罗火山口和保护区(2020)WEBRip 2160p.mkv_20210120_130904.021.jpg (发)恩戈罗火山口和保护区(2020)WEBRip 2160p.mkv_20210120_130921.637.jpg (发)恩戈罗火山口和保护区(2020)WEBRip 2160p.mkv_20210120_130930.749.jpg

信息
标题:火山口和恩戈罗恩戈罗自然保护区
原始电影:恩戈罗恩戈罗火山口和自然保护区
发行: 2020
类型: 物种
国家/地区:坦桑尼亚
时长: 00 : 19 : 14

导演: Milosh Kitchovitch

电影简介:

        恩戈罗火山口-世界上最好的野生动物园之一。由于全年都有丰富的食物和水,而且无需迁移,因此成为野生动植物的天堂。恩戈罗恩戈罗保护区是火山口周围的保护区,是联合国教科文组织世界遗产。


General
Complete name                  :[国家地理]\恩戈罗火山口和保护区(2020)WEBRip 2160p.mkv
Format                         : Matroska
Format version                 : Version 4
File size                      : 2.36 GiB
Duration                       : 19 min 14 s
Overall bit rate               : 17.6 Mb/s
Encoded date                   : UTC 2021-01-19 13:24:56
Writing application            : mkvmerge v52.0.0 ('Secret For The Mad') 64-bit
Writing library                : libebml v1.4.1 + libmatroska v1.6.2 / Lavf58.29.100

Video
ID                             : 1
Format                         : VP9
Codec ID                       : V_VP9
Duration                       : 19 min 14 s
Bit rate                       : 17.5 Mb/s
Width                          : 3 840 pixels
Height                         : 2 160 pixels
Display aspect ratio           : 16:9
Frame rate mode                : Constant
Frame rate                     : 29.970 (30000/1001) FPS
Color space                    : YUV
Bits/(Pixel*Frame)             : 0.070
Stream size                    : 2.35 GiB (99%)
Default                        : Yes
Forced                         : No
Color range                    : Limited
Color primaries                : BT.709
Transfer characteristics       : BT.709
Matrix coefficients            : BT.709

Audio
ID                             : 2
Format                         : AAC LC
Format/Info                    : Advanced Audio Codec Low Complexity
Codec ID                       : A_AAC-2
Duration                       : 19 min 14 s
Bit rate                       : 128 kb/s
Channel(s)                     : 2 channels
Channel layout                 : L R
Sampling rate                  : 44.1 kHz
Frame rate                     : 43.066 FPS (1024 SPF)
Compression mode               : Lossy
Stream size                    : 17.6 MiB (1%)
Default                        : Yes
Forced                         : No



游客,如果您要查看本帖隐藏内容请回复




.
回复

使用道具 举报

1

主题

1172

帖子

3338

积分

4K家园VIP

Rank: 9Rank: 9Rank: 9

积分
3338
发表于 2021-1-23 10:52:18 | 显示全部楼层
支持支持再支持
回复 支持 反对

使用道具 举报

0

主题

2686

帖子

8508

积分

4K家园VIP

Rank: 9Rank: 9Rank: 9

积分
8508
发表于 2021-1-23 12:07:53 | 显示全部楼层
太好啦&萬分感謝版主的無私發佈分享%
回复 支持 反对

使用道具 举报

0

主题

3

帖子

12

积分

新手上路

Rank: 1

积分
12
发表于 2021-1-23 15:08:10 | 显示全部楼层

支持支持再支持
回复 支持 反对

使用道具 举报

0

主题

1175

帖子

3539

积分

4K家园VIP

Rank: 9Rank: 9Rank: 9

积分
3539
发表于 2021-1-24 21:13:14 | 显示全部楼层
看帖要回,回帖才健康,在踩踩,楼主辛苦了!
回复 支持 反对

使用道具 举报

0

主题

1212

帖子

3486

积分

4K家园VIP

Rank: 9Rank: 9Rank: 9

积分
3486
发表于 2021-1-24 22:56:58 | 显示全部楼层
感谢楼主的分享,还是阔以滴
回复 支持 反对

使用道具 举报

0

主题

94

帖子

213

积分

新手上路

Rank: 1

积分
213
发表于 2021-1-25 10:53:25 | 显示全部楼层
感谢楼主的分享,还是阔以滴
回复 支持 反对

使用道具 举报

2

主题

1177

帖子

3549

积分

4K家园VIP

Rank: 9Rank: 9Rank: 9

积分
3549
发表于 2021-1-26 03:59:49 | 显示全部楼层
还有没有别的资源,多分享些
回复 支持 反对

使用道具 举报

2

主题

1017

帖子

3069

积分

4K家园VIP

Rank: 9Rank: 9Rank: 9

积分
3069
发表于 2021-1-26 08:25:40 | 显示全部楼层
不错 支持一个了
回复 支持 反对

使用道具 举报

0

主题

10

帖子

36

积分

新手上路

Rank: 1

积分
36
发表于 2021-1-26 11:35:00 | 显示全部楼层
支持支持再支持
回复 支持 反对

使用道具 举报

您需要登录后才可以回帖 登录 | 立即注册

本版积分规则

精彩图文
Archiver|手机版|TAG|Sitemap|新帖|专题|联系我们:邮箱: 4kjia.com@gmail.com   

4k家园   ©2019