[4K记录视频] [国家地理] 阿迪尔·苏峡谷(2020)[2160P/MKV/2.36GB]

[复制链接]

2210

主题

2494

帖子

2万

积分

超级版主

Rank: 8Rank: 8

积分
20512
 楼主| 发表于 2021-1-23 21:00:25 | 显示全部楼层 |阅读模式

阿迪尔·苏峡谷(2020)WEBRip 2160p.mkv_20210120_132249.205.jpg 阿迪尔·苏峡谷(2020)WEBRip 2160p.mkv_20210120_132255.421.jpg 阿迪尔·苏峡谷(2020)WEBRip 2160p.mkv_20210120_132302.460.jpg 阿迪尔·苏峡谷(2020)WEBRip 2160p.mkv_20210120_132307.964.jpg 阿迪尔·苏峡谷(2020)WEBRip 2160p.mkv_20210120_132314.957.jpg 阿迪尔·苏峡谷(2020)WEBRip 2160p.mkv_20210120_132320.340.jpg 阿迪尔·苏峡谷(2020)WEBRip 2160p.mkv_20210120_132326.628.jpg

信息
标题: Adyl-Su峡谷
发行年份: 2020
类型: 种类
国家/地区:俄罗斯
时长: 00 : 03 : 19

导演:无限之风

关于电影:
Adyl-Su峡谷是位于两个分水岭Adyl和Yusengi之间的上布鲁斯地区的自然地标。在高加索地区,这是一个风景如画,美丽的地方。峰顶,复杂的冰川破裂,波光粼粼的白色雪冰斜坡,高山草甸多姿多彩的绿色山谷。



General
Complete name                  : I:\[国家地理]\阿迪尔·苏峡谷(2020)WEBRip 2160p.mkv
Format                         : Matroska
Format version                 : Version 4
File size                      : 432 MiB
Duration                       : 3 min 19 s
Overall bit rate               : 18.2 Mb/s
Encoded date                   : UTC 2021-01-19 16:07:54
Writing application            : mkvmerge v52.0.0 ('Secret For The Mad') 64-bit
Writing library                : libebml v1.4.1 + libmatroska v1.6.2 / Lavf58.29.100

Video
ID                             : 1
Format                         : VP9
Codec ID                       : V_VP9
Duration                       : 3 min 19 s
Bit rate                       : 18.0 Mb/s
Width                          : 3 840 pixels
Height                         : 2 160 pixels
Display aspect ratio           : 16:9
Frame rate mode                : Constant
Frame rate                     : 29.970 (30000/1001) FPS
Color space                    : YUV
Bits/(Pixel*Frame)             : 0.073
Stream size                    : 429 MiB (99%)
Default                        : Yes
Forced                         : No
Color range                    : Limited
Color primaries                : BT.709
Transfer characteristics       : BT.709
Matrix coefficients            : BT.709

Audio
ID                             : 2
Format                         : AAC LC
Format/Info                    : Advanced Audio Codec Low Complexity
Codec ID                       : A_AAC-2
Duration                       : 3 min 19 s
Bit rate                       : 128 kb/s
Channel(s)                     : 2 channels
Channel layout                 : L R
Sampling rate                  : 44.1 kHz
Frame rate                     : 43.066 FPS (1024 SPF)
Compression mode               : Lossy
Stream size                    : 3.04 MiB (1%)
Default                        : Yes
Forced                         : No



游客,如果您要查看本帖隐藏内容请回复


.
回复

使用道具 举报

0

主题

1248

帖子

3576

积分

中级会员

Rank: 4

积分
3576
发表于 2021-1-23 21:00:32 | 显示全部楼层
鄙视楼下的顶帖没我快,哈哈
回复 支持 反对

使用道具 举报

0

主题

3

帖子

15

积分

新手上路

Rank: 1

积分
15
发表于 2021-1-23 21:26:06 | 显示全部楼层
漂亮,世界真美好
回复 支持 反对

使用道具 举报

0

主题

2628

帖子

8428

积分

4K家园VIP

Rank: 9Rank: 9Rank: 9

积分
8428
发表于 2021-1-23 23:01:12 | 显示全部楼层
太好啦&萬分感謝版主的無私發佈分享%
回复 支持 反对

使用道具 举报

0

主题

49

帖子

1549

积分

注册会员

Rank: 2

积分
1549
发表于 2021-1-24 08:07:51 | 显示全部楼层
太好啦&萬分感謝版主的無私發佈分享%
回复 支持 反对

使用道具 举报

39

主题

1280

帖子

3600

积分

4K家园VIP

Rank: 9Rank: 9Rank: 9

积分
3600
发表于 2021-1-24 15:24:38 | 显示全部楼层
沙发位出租,
回复 支持 反对

使用道具 举报

0

主题

2

帖子

9

积分

新手上路

Rank: 1

积分
9
发表于 2021-1-24 15:29:48 | 显示全部楼层
kankan hao
回复

使用道具 举报

1

主题

1074

帖子

3204

积分

4K家园VIP

Rank: 9Rank: 9Rank: 9

积分
3204
发表于 2021-1-24 16:53:20 来自手机 | 显示全部楼层
确实不错,顶先
回复 支持 反对

使用道具 举报

2

主题

1036

帖子

3124

积分

4K家园VIP

Rank: 9Rank: 9Rank: 9

积分
3124
发表于 2021-1-25 02:35:52 | 显示全部楼层
好帖必须得顶起
回复 支持 反对

使用道具 举报

0

主题

50

帖子

98

积分

新手上路

Rank: 1

积分
98
发表于 2021-1-27 17:50:13 | 显示全部楼层
感谢分享。
回复

使用道具 举报

您需要登录后才可以回帖 登录 | 立即注册

本版积分规则

精彩图文
Archiver|手机版|TAG|Sitemap|新帖|专题|联系我们:邮箱: 4kjia.com@gmail.com   

4k家园   ©2019