[4K记录视频] [国家地理] 特斯克峡谷(2020) [2160P/MKV/764MB]

[复制链接]

2210

主题

2494

帖子

2万

积分

超级版主

Rank: 8Rank: 8

积分
20521
 楼主| 发表于 2021-1-24 15:50:54 | 显示全部楼层 |阅读模式

特斯克峡谷(2020)WEBRip 2160p.mkv_20210120_133124.340.jpg 特斯克峡谷(2020)WEBRip 2160p.mkv_20210120_133136.835.jpg 特斯克峡谷(2020)WEBRip 2160p.mkv_20210120_133152.099.jpg 特斯克峡谷(2020)WEBRip 2160p.mkv_20210120_133157.788.jpg 特斯克峡谷(2020)WEBRip 2160p.mkv_20210120_133210.948.jpg 特斯克峡谷(2020)WEBRip 2160p.mkv_20210120_133216.988.jpg

基本信息
标题: Terskol Gorge
发行年份: 2020
国家/地区:俄罗斯
持续时间: 00:05 : 16

导演:Ветер Бесконечности

关于电影:
Terskol Gorge位于Elbrus的两个马刺之间:东南的Terskol和东部的Tegenekli山脊。冰川悬在峡谷的上部,沿着Elbrus的山坡滑下,形成了Terskol河。



General
Complete name                  : I:\[国家地理]\特斯克峡谷(2020)WEBRip 2160p.mkv
Format                         : Matroska
Format version                 : Version 4
File size                      : 765 MiB
Duration                       : 5 min 16 s
Overall bit rate               : 20.3 Mb/s
Encoded date                   : UTC 2021-01-19 16:36:12
Writing application            : mkvmerge v52.0.0 ('Secret For The Mad') 64-bit
Writing library                : libebml v1.4.1 + libmatroska v1.6.2 / Lavf58.29.100

Video
ID                             : 1
Format                         : VP9
Codec ID                       : V_VP9
Duration                       : 5 min 16 s
Bit rate                       : 20.1 Mb/s
Width                          : 3 840 pixels
Height                         : 2 160 pixels
Display aspect ratio           : 16:9
Frame rate mode                : Constant
Frame rate                     : 29.970 (30000/1001) FPS
Color space                    : YUV
Bits/(Pixel*Frame)             : 0.081
Stream size                    : 760 MiB (99%)
Default                        : Yes
Forced                         : No
Color range                    : Limited
Color primaries                : BT.709
Transfer characteristics       : BT.709
Matrix coefficients            : BT.709

Audio
ID                             : 2
Format                         : AAC LC
Format/Info                    : Advanced Audio Codec Low Complexity
Codec ID                       : A_AAC-2
Duration                       : 5 min 16 s
Bit rate                       : 128 kb/s
Channel(s)                     : 2 channels
Channel layout                 : L R
Sampling rate                  : 44.1 kHz
Frame rate                     : 43.066 FPS (1024 SPF)
Compression mode               : Lossy
Stream size                    : 4.83 MiB (1%)
Default                        : Yes
Forced                         : No



游客,如果您要查看本帖隐藏内容请回复


.
回复

使用道具 举报

2

主题

1496

帖子

4074

积分

4K家园VIP

Rank: 9Rank: 9Rank: 9

积分
4074
发表于 2021-1-24 15:50:59 | 显示全部楼层
LZ敢整点更有创意的不?兄弟们等着围观捏~
回复 支持 反对

使用道具 举报

0

主题

2698

帖子

8533

积分

4K家园VIP

Rank: 9Rank: 9Rank: 9

积分
8533
发表于 2021-1-24 19:44:22 | 显示全部楼层
太好啦&萬分感謝版主的無私發佈分享%
回复 支持 反对

使用道具 举报

0

主题

160

帖子

1157

积分

4K家园VIP

Rank: 9Rank: 9Rank: 9

积分
1157
QQ
发表于 2021-1-24 20:10:11 | 显示全部楼层
楼主辛苦了,谢谢楼主,感谢楼主分享,楼主好人一生平安!!!
回复 支持 反对

使用道具 举报

0

主题

2

帖子

9

积分

新手上路

Rank: 1

积分
9
发表于 2021-1-24 20:58:47 | 显示全部楼层
回复

使用道具 举报

0

主题

50

帖子

98

积分

新手上路

Rank: 1

积分
98
发表于 2021-1-27 15:07:30 | 显示全部楼层
感谢分享。
回复

使用道具 举报

0

主题

22

帖子

130

积分

新手上路

Rank: 1

积分
130
发表于 2021-1-27 15:19:52 | 显示全部楼层
谢楼主分享
回复 支持 反对

使用道具 举报

0

主题

94

帖子

213

积分

新手上路

Rank: 1

积分
213
发表于 2021-2-3 08:06:30 | 显示全部楼层
特斯克峡谷(2020
回复 支持 反对

使用道具 举报

0

主题

1

帖子

6

积分

新手上路

Rank: 1

积分
6
发表于 2021-2-4 10:21:33 来自手机 | 显示全部楼层
不错不错不错不错
回复 支持 反对

使用道具 举报

0

主题

1

帖子

6

积分

新手上路

Rank: 1

积分
6
发表于 2021-2-4 11:33:05 来自手机 | 显示全部楼层
6666非常感谢分享
回复 支持 反对

使用道具 举报

您需要登录后才可以回帖 登录 | 立即注册

本版积分规则

精彩图文
Archiver|手机版|TAG|Sitemap|新帖|专题|联系我们:邮箱: 4kjia.com@gmail.com   

4k家园   ©2019